Сибирский цирюльник (1998) Android – MediaClub


Size : 779.39 MiB (817251871 Bytes)

  http://mediaclub.tv/
Welcome to MediaClub

===================================================================















(RUS)

General
Complete name









: Sibirskij.cirulnik.1998.Android.MediaClub.mp4
Format












: MPEG-4
Format profile








: Base Media
Codec ID











: isom
File size











: 779 MiB
Duration











: 2h 52mn
Overall bit rate







: 633 Kbps
Movie name










: Сибирский цирюльник
Performer











: Никита Михалков
Recorded date









: 1998
Writing application






: Lavf54.63.104
Cover













: Yes
ENCODEDBY











: WildCat1962
WWW














: MediaClub.TV

Video
ID














: 1
Format












: MPEG-4 Visual
Format profile








: [email protected]/* */
Format settings, BVOP





: No
Format settings, QPel





: No
Format settings, GMC





: No warppoints
Format settings, Matrix




: Default (H.263)
Codec ID











: 20
Duration











: 2h 52mn
Bit rate mode









: Constant
Bit rate











: 500 Kbps
Width













: 320 pixels
Height












: 128 pixels
Display aspect ratio





: 2.500
Frame rate mode








: Variable
Frame rate










: 25.000 fps
Minimum frame rate






: 12.500 fps
Maximum frame rate






: 25.000 fps
Color space










: YUV
Chroma subsampling






: 4:2:0
Bit depth











: 8 bits
Scan type











: Progressive
Compression mode







: Lossy
Bits/(Pixel*Frame)






: 0.488
Stream size










: 615 MiB (79%)
Writing library








: Lavc54.92.100

Audio
ID














: 2
Format












: AAC
Format/Info










: Advanced Audio Codec
Format profile








: LC
Codec ID











: 40
Duration











: 2h 52mn
Bit rate mode









: Constant
Bit rate











: 128 Kbps
Channel(s)










: 2 channels
Channel positions







: Front: L R
Sampling rate









: 44.1 KHz
Compression mode







: Lossy
Stream size










: 158 MiB (20%)