12-12-12 The End Of The World Begins With It


Size : 296.57 MiB (310977527 Bytes)

Format












: MPEG-4
Format profile








: Base Media / Version 2
Codec ID











: mp42
File size











: 297 MiB
Duration











: 1h 25mn
Overall bit rate







: 482 Kbps
Encoded date









: UTC 2013-03-08 19:33:55
Tagged date










: UTC 2013-03-08 19:33:55

Video
ID














: 1
Format












: AVC
Format/Info










: Advanced Video Codec
Format profile








: [email protected]/* */
Format settings, CABAC




: Yes
Format settings, ReFrames



: 3 frames
Codec ID











: avc1
Codec ID/Info









: Advanced Video Coding
Duration











: 1h 25mn
Bit rate mode









: Variable
Bit rate











: 354 Kbps
Width













: 704 pixels
Height












: 304 pixels
Display aspect ratio





: 2.35:1
Frame rate mode








: Variable
Frame rate










: 30.000 fps
Minimum frame rate






: 30.000 fps
Maximum frame rate






: 30.030 fps
Standard











: NTSC
Resolution










: 8 bits
Colorimetry










: 4:2:0
Scan type











: Progressive
Bits/(Pixel*Frame)






: 0.055
Stream size










: 218 MiB (73%)
Language











: English
Encoded date









: UTC 2013-03-08 19:33:55
Tagged date










: UTC 2013-03-08 19:33:55

Audio
ID














: 2
Format












: AAC
Format/Info










: Advanced Audio Codec
Format version








: Version 4
Format profile








: LC
Format settings, SBR





: No
Codec ID











: 40
Duration











: 1h 25mn
Bit rate mode









: Variable
Bit rate











: 126 Kbps
Maximum bit rate







: 234 Kbps
Channel(s)










: 2 channels
Channel positions







: Front: L R
Sampling rate









: 44.1 KHz
Stream size










: 77.3 MiB (26%)
Language











: English
Encoded date









: UTC 2013-03-08 19:33:55
Tagged date










: UTC 2013-03-08 19:33:55