300 Rise of an Empire 2014 3D 1080p BluRay Half SBS HDAccess DUA


Size : 11.97 GiB (12853215641 Bytes)

After his victory over Leonidas 300, the Persian army under the command of Xerxes march toward major Greek city-states. The Democratic city of Athens for the first time in the path of the army of Xerxes, bases its strength in its fleet, led by Admiral Themistocles. Themistocles is forced into a reluctant with the traditional rival of Athens, Sparta oligarchic alliance whose power lies with their superior infantry troops. But Xerxes still reigns supreme in numbers over sea and land.

Original title: 300: Rise of an Empire
Title in Brazil: 300 - The Rise of the Empire
Genre: Action / Drama / War
Video Length: 102 Min
Release Year: 2014
IMDB: http://www.imdb.com/title/tt1253863/

Size: 11.97 GB
Quality: Blu-Ray - 3D
File Format:. MKV
Resolution: 1920 x 1080
Video codec: H.264 / AVC
Audio Codec: DTS / AC3 5.1
Audio Languages​​: Portuguese / English
Subtitles: Portuguese

Complete name: /300.Rise.of.an.Empire.2014.3D.1080p.BluRay.Half-SBS.HDAccess.DUAL-CHC.mkv
Format
















: Matroska
Format version












: Version 2
File size















: 12.0 GiB
Duration















: 1h 42mn
Overall bit rate











: 16.7 Mbps
Encoded date













: UTC 2014-06-05 20:43:37
Writing application










: mkvmerge v5.7.0 ('The Whirlwind') built on Jul 19 2012 22:42:02
Writing library












: libebml v1.2.3 + libmatroska v1.3.0

Video
ID


















: 1
Format
















: AVC
Format/Info














: Advanced Video Codec
Format profile












: [email protected]/* */
Format settings, CABAC








: Yes
Format settings, ReFrames







: 4 frames
Format settings, GOP









: M=7, N=9
Muxing mode














: Header stripping
Codec ID















: V_MPEG4/ISO/AVC
Duration















: 1h 42mn
Bit rate















: 14.4 Mbps
Width

















: 1 920 pixels
Height
















: 1 080 pixels
Display aspect ratio









: 16:9
Frame rate














: 23.976 fps
Color space














: YUV
Chroma subsampling










: 4:2:0
Bit depth















: 8 bits
Scan type















: Progressive
Bits/(Pixel*Frame)










: 0.290
Stream size














: 10.3 GiB (86%)
Writing library












: x264 core 133 r2334 a3ac64b
Encoding settings











: cabac=1 / ref=4 / deblock=1:-3:-3 / analyse=0x3:0x133 / me=umh / subme=9 / psy=1 / psy_rd=1.09:0.00 / mixed_ref=1 / me_range=24 / chroma_me=1 / trellis=1 / 8x8dct=1 / cqm=0 / deadzone=21,11 / fast_pskip=0 / chroma_qp_offset=-2 / threads=6 / lookahead_threads=1 / sliced_threads=0 / nr=0 / decimate=1 / interlaced=0 / bluray_compat=0 / constrained_intra=0 / bframes=6 / b_pyramid=2 / b_adapt=2 / b_bias=0 / direct=3 / weightb=1 / open_gop=0 / weightp=2 / keyint=9 / keyint_min=1 / scenecut=40 / intra_refresh=0 / rc_lookahead=17 / rc=crf / mbtree=0 / crf=17.0 / qcomp=0.60 / qpmin=0 / qpmax=69 / qpstep=4 / vbv_maxrate=40000 / vbv_bufsize=30000 / crf_max=0.0 / nal_hrd=none / ip_ratio=1.40 / pb_ratio=1.30 / aq=1:0.80
Default
















: Yes
Forced
















: No

Audio #1
ID


















: 2
Format
















: AC-3
Format/Info














: Audio Coding 3
Mode extension












: CM (complete main)
Format settings, Endianness






: Big
Muxing mode














: Header stripping
Codec ID















: A_AC3
Duration















: 1h 42mn
Bit rate mode













: Constant
Bit rate















: 448 Kbps
Channel(s)














: 6 channels
Channel positions











: Front: L C R, Side: L R, LFE
Sampling rate













: 48.0 KHz
Bit depth















: 16 bits
Compression mode











: Lossy
Stream size














: 329 MiB (3%)
Language















: Portuguese
Default
















: Yes
Forced
















: Yes

Audio #2
ID


















: 3
Format
















: DTS
Format/Info














: Digital Theater Systems
Muxing mode














: Header stripping
Codec ID















: A_DTS
Duration















: 1h 42mn
Bit rate mode













: Constant
Bit rate















: 1 510 Kbps
Channel(s)














: 6 channels
Channel positions











: Front: L C R, Side: L R, LFE
Sampling rate













: 48.0 KHz
Bit depth















: 24 bits
Compression mode











: Lossy
Stream size














: 1.08 GiB (9%)
Language















: English
Default
















: No
Forced
















: No

Text
ID


















: 4
Format
















: PGS
Muxing mode














: zlib
Codec ID















: S_HDMV/PGS
Codec ID/Info













: The same subtitle format used on BDs/HD-DVDs
Language















: Portuguese
Default
















: Yes
Forced
















: No