3D.HSBS.A.Fuga.Do.Planeta.Terra – DEJAVUBR


Size : 1.26 GiB (1351201596 Bytes)

A fuga do Planeta Terra (2013)
- 1080p 3D DUBLADO - PT-BR - DEJAVUBR

=======================================================
==== w w w . t h e p i r a t e f i l m e s . c o m ====
=======================================================



Lançamento:

31 de maio de 2013 (1h 29min)
Dirigido por:
Callan Brunker
Com:





Brendan Fraser, Rob Corddry, Sarah Jessica Parker mais
Gênero:



Animação , Comédia , Ficção científica , Aventura
Nacionalidade:
EUA , Canadá
OBS: Filmes 3D só funcionam em TVs ou Monitores 3D



Scorch Supernova (Brendan Fraser) é um herói interplanetário bastante conhecido, já que seus feitos costumam ser televisionados para todo o planeta Babum. Isto faz com que ele se torne uma lenda para as crianças, graças também à ajuda de Gary (Rob Corddry), o diretor da Missão BASA Control e seu irmão. Namorando a bela repórter Gabby Tagarela (Sofia Vergara) e tendo o sobrinho Kip (Jonathan Morgan Heit) como fã número um, Scorch tem sua vida alterada aoser enviado em uma missão no planeta proibido, também conhecido como Terra. O problema é que nenhum astronauta retornou de lá e, por causa disto, Gary não quer que o irmão embarque nesta aventura. Scorch nem se importa com os alertas e viaja assim mesmo, não sem antes desfazer a parceria com Gary. Porém, quando Scorch é capturado pelos terráqueos em meio a uma transmissão ao vivo pela TV, Gary não vê outra alternativa a não ser também viajar à Terra para salvá-lo.


PARA MAIS FILMES VISITEM:
=======================================================
==== w w w . t h e p i r a t e f i l m e s . c o m ====
=======================================================

AO FIM DO DOWNLOAD FIQUE SEMEANDO/ENVIANDO, PARA QUE EU POSSA ENVIAR OUTROS FILMES COM QUALIDADE! Obrigado!



Video


ID













: 1
Format











: AVC
Format/Info









: Advanced Video Codec
Format profile







: [email protected]/* */
Format settings, CABAC



: Yes
Format settings, ReFrames


: 5 frames
Codec ID










: avc1
Codec ID/Info








: Advanced Video Coding
Duration










: 1h 29mn
Bit rate










: 1 885 Kbps
Maximum bit rate






: 10.3 Mbps
Width












: 1 920 pixels
Height











: 1 080 pixels
Display aspect ratio




: 16:9
Frame rate mode







: Constant
Frame rate









: 23.976 fps
Color space









: YUV
Chroma subsampling





: 4:2:0
Bit depth










: 8 bits
Scan type










: Progressive
Bits/(Pixel*Frame)





: 0.038
Stream size









: 1.17 GiB (93%)

Audio


ID













: 2
Format











: AAC
Format/Info









: Advanced Audio Codec
Format profile







: LC
Codec ID










: 40
Duration










: 1h 29mn
Bit rate mode








: Variable
Bit rate










: 132 Kbps
Maximum bit rate






: 188 Kbps
Channel(s)









: 2 channels
Channel positions






: Front: L R
Sampling rate








: 44.1 KHz
Compression mode






: Lossy
Stream size









: 85.9 MiB (7%)