3D.HSBS.Guerra.Mundial.Z – DEJAVUBR


Size : 1.81 GiB (1948477028 Bytes)



Guerra Mundial Z (2013) 1080p 3D DUBLADO - PT-BR DEJAVUBR

=======================================================
==== w w w . t h e p i r a t e f i l m e s . c o m ====
=======================================================

Lançamento:

28 de junho de 2013 (1h 56min)
Dirigido por:
Marc Forster
Com:





Brad Pitt, Mireille Enos, Elyes Gabel mais
Gênero:



Ficção científica , Ação , Fantasia
Nacionalidade:
EUA
OBS: Filmes 3D só funcionam em TVs ou Monitores 3D

Uma terrível e misteriosa doença se espalha pelo mundo, transformando as pessoas em uma espécie de zumbis. A velocidade do contágio é impressionante e logo o Governo americano recruta um ex-investigador da ONU (Organização das Nações Unidas) para investigar o que pode estar acontecendo e assim salvar a humanidade, tendo em vista que as previsões são as mais catastróficas possíveis. Gerry Lane (Brad Pitt) tinha optado por dedicar mais tempo a sua esposa Karen (Mireille Enos) e as filhas, mas seu amor a pátria e o desejo de salvar sua família acabam contribuindo para que ele tope a missão. Agora, ele precisa percorrer o caminho inverso da contaminação para tentar entender as causas ou, ao menos, indentificar uma maneira de conter o contágio até que se descubra uma cura antes do
apocalipse. Começa uma verdadeira corrida contra o tempo, que mostra-se cada vez mais curto, na medida que a população de humanos não para de diminuir.


PARA MAIS FILMES VISITEM:
=======================================================
==== w w w . t h e p i r a t e f i l m e s . c o m ====
=======================================================

AO FIM DO DOWNLOAD FIQUE SEMEANDO/ENVIANDO, PARA QUE EU POSSA ENVIAR OUTROS FILMES COM QUALIDADE! Obrigado!



Video

ID













: 1
Format











: AVC
Format/Info









: Advanced Video Codec
Format profile







: [email protected]/* */
Format settings, CABAC



: Yes
Format settings, ReFrames


: 4 frames
Codec ID










: avc1
Codec ID/Info








: Advanced Video Coding
Duration










: 1h 56mn
Bit rate










: 2 169 Kbps
Width












: 1 920 pixels
Height











: 1 080 pixels
Display aspect ratio




: 16:9
Frame rate mode







: Variable
Frame rate









: 23.976 fps
Minimum frame rate





: 23.976 fps
Maximum frame rate





: 24.024 fps
Color space









: YUV
Chroma subsampling





: 4:2:0
Bit depth










: 8 bits
Scan type










: Progressive
Bits/(Pixel*Frame)





: 0.044
Stream size









: 1.76 GiB (97%)



Audio

ID













: 2
Format











: AAC
Format/Info









: Advanced Audio Codec
Format profile







: LC
Codec ID










: 40
Duration










: 1h 56mn
Bit rate mode








: Constant
Bit rate










: 63.9 Kbps
Channel(s)









: 2 channels
Channel positions






: Front: L R
Sampling rate








: 48.0 KHz
Compression mode






: Lossy
Stream size









: 53.0 MiB (3%)