3D.HSBS.No.Limite.do.Amanha – DEJAVUBR


Size : 2.02 GiB (2169337357 Bytes)

No Limite do Amanhã(2014)1080p3D DUBLADO-PT-BR + Legendas DEJAVUBR

=======================================================
==== w w w . t h e p i r a t e f i l m e s . c o m ====
=======================================================

Lançamento 29 de maio de 2014 (1h53min)
Dirigido por Doug Liman
Com



Tom Cruise, Emily Blunt, Bill Paxton mais
Gênero



Ficção científica , Ação
Nacionalidade EUA , Austrália
OBS: Filmes 3D só funcionam em TVs ou Monitores 3D

Quando a Terra é tomada por alienígenas, Bill Cage (Tom Cruise), relações públicas das Forças Armadas dos Estados Unidos, é obrigado a ir para a linha de frente no dia do confronto final. Inexplicavelmente ele acaba preso no tempo, condenado a reviver esta data repetidamente. A cada morte e renascimento, Cage avança e, antecipando os acontecimentos, tem a chance de mudar o curso da batalha com o apoio da guerreira Rita Vrataski (Emily Blunt).


PARA MAIS FILMES VISITEM:
=======================================================
==== w w w . t h e p i r a t e f i l m e s . c o m ====
=======================================================

AO FIM DO DOWNLOAD FIQUE SEMEANDO/ENVIANDO, PARA QUE EU POSSA ENVIAR OUTROS FILMES COM QUALIDADE! Obrigado!





Video

ID


















: 2
Format
















: AVC
Format/Info














: Advanced Video Codec
Format profile












: [email protected]/* */
Format settings, CABAC








: Yes
Format settings, ReFrames







: 4 frames
Codec ID















: avc1
Codec ID/Info













: Advanced Video Coding
Duration















: 1h 53mn
Bit rate















: 1 980 Kbps
Maximum bit rate











: 8 547 Kbps
Width

















: 1 920 pixels
Height
















: 800 pixels
Display aspect ratio









: 2.40:1
Frame rate mode












: Constant
Frame rate














: 23.976 fps
Color space














: YUV
Chroma subsampling










: 4:2:0
Bit depth















: 8 bits
Scan type















: Progressive
Bits/(Pixel*Frame)










: 0.054
Stream size














: 1.57 GiB (78%)





Audio #1

ID


















: 1
Format
















: AC-3
Format/Info














: Audio Coding 3
Mode extension












: CM (complete main)
Format settings, Endianness






: Big
Codec ID















: ac-3
Duration















: 1h 53mn
Bit rate mode













: Constant
Bit rate















: 448 Kbps
Channel(s)














: 6 channels
Channel positions











: Front: L C R, Side: L R, LFE
Sampling rate













: 48.0 KHz
Bit depth















: 16 bits
Compression mode











: Lossy
Stream size














: 364 MiB (18%)
Title

















: Portugues AC3 5.1- BRENYS
Language















: Portuguese



Audio #2

ID


















: 3
Format
















: AAC
Format/Info














: Advanced Audio Codec
Format profile












: LC
Codec ID















: 40
Duration















: 1h 53mn
Bit rate mode













: Variable
Bit rate















: 93.8 Kbps
Maximum bit rate











: 107 Kbps
Channel(s)














: 2 channels
Channel positions











: Front: L R
Sampling rate













: 48.0 KHz
Compression mode











: Lossy
Stream size














: 76.1 MiB (4%)
Language















: English