3D.HSBS.O.Espetacular.Homem-Aranha.2- DEJAVUBR


Size : 2.1 GiB (2256911541 Bytes)

O Espetacular Homem-Aranha 2-A Ameaça de Electro(2014)1080p3D DUBLADO-PT-BR DEJAVUB

=======================================================
==== w w w . t h e p i r a t e f i l m e s . c o m ====
=======================================================

Lançamento: 1 de maio de 2014 (2h21min)
Dirigido por: Marc Webb
Com:



Andrew Garfield, Emma Stone, Jamie Foxx mais
Gênero:

Ação , Fantasia , Aventura
Nacionalidade:
EUA
OBS: Filmes 3D só funcionam em TVs ou Monitores 3D

Peter Parker (Andrew Garfield) adora ser o Homem-Aranha, por mais que ser o herói aracnídeo o coloque em situações bem complicadas, especialmente com sua namorada Gwen Stacy (Emma Stone) e sua tia May (Sally Field). Apesar disto, ele equilibra suas várias facetas da forma que pode. No momento, Peter está mais preocupado é com o fantasma da promessa feita ao pai de Gwen, de que se afastaria dela para protegê-la. Ao mesmo tempo ele precisa lidar com o retorno de um velho amigo, Harry Osborn (Dane DeHaan), e o surgimento de um vilão poderoso: Electro (Jamie Foxx).



PARA MAIS FILMES VISITEM:
=======================================================
==== w w w . t h e p i r a t e f i l m e s . c o m ====
=======================================================

AO FIM DO DOWNLOAD FIQUE SEMEANDO/ENVIANDO, PARA QUE EU POSSA ENVIAR OUTROS FILMES COM QUALIDADE! Obrigado!



Video


ID


















: 2
Format
















: AVC
Format/Info














: Advanced Video Codec
Format profile












: [email protected]/* */
Format settings, CABAC








: Yes
Format settings, ReFrames







: 4 frames
Codec ID















: avc1
Codec ID/Info













: Advanced Video Coding
Duration















: 2h 21mn
Bit rate















: 1 983 Kbps
Maximum bit rate











: 10.7 Mbps
Width

















: 1 920 pixels
Height
















: 800 pixels
Display aspect ratio









: 2.40:1
Frame rate mode












: Constant
Frame rate














: 23.976 fps
Color space














: YUV
Chroma subsampling










: 4:2:0
Bit depth















: 8 bits
Scan type















: Progressive
Bits/(Pixel*Frame)










: 0.054
Stream size














: 1.96 GiB



Audio

ID


















: 1
Format
















: AAC
Format/Info














: Advanced Audio Codec
Format profile












: HE-AAC / LC
Codec ID















: 40
Duration















: 2h 21mn
Bit rate mode













: Variable
Bit rate















: 139 Kbps
Maximum bit rate











: 175 Kbps
Channel(s)














: 2 channels
Channel positions











: Front: L R
Sampling rate













: 48.0 KHz / 24.0 KHz
Compression mode











: Lossy
Stream size














: 141 MiB (7%)
Encoded date













: UTC 2014-08-19 02:04:51
Tagged date














: UTC 2014-08-19 02:05:44