3D.HSBS.O.Homem.de.Aço – DEJAVUBR


Size : 2.08 GiB (2228110623 Bytes)

O Homem de Aço (2013) 1080p 3D DUBLADO - PT-BR DEJAVUBR

=======================================================
==== w w w . t h e p i r a t e f i l m e s . c o m ====
=======================================================

Lançamento:

12 de julho de 2013 (2h23min)
Dirigido por:
Zack Snyder
Com:





Henry Cavill, Amy Adams, Michael Shannon mais
Gênero:



Ação , Aventura , Fantasia
Nacionalidade:
EUA , Canadá , Reino Unido
OBS: Filmes 3D só funcionam em TVs ou Monitores 3D

Nascido em Krypton, o pequeno Kal-El viveu pouco tempo em seu planeta natal. Percebendo que o planeta estava prestes a entrar em colapso, seu pai (Russell Crowe) o envia ainda bebê em uma nave espacial, rumo ao planeta Terra, e levando com ele importantes informações de seu povo. Contrariado com tal atitude, o General Zod (Michael Shannon) tenta impedir a iniciativa e acaba preso. Já em seu novo lar, a criança foi criada por Jonathan (Kevin Costner) e Martha Kent (Diane Lane), que passaram a chamá-lo de Clark. O tempo passa, seus poderes vão aparecendo e se tornando, de certa forma, um problema, porque isso evidencia que ele não é um ser humano. Já adulto, Clark (Henry Cavill) se vê obrigado a buscar um certo isolamento porque não consegue resistir aos salvamentos das pessoas e sempre precisa sumir do mapa para não criar problemas para seus pais. Mas o terrível Zod conseguiu se libertar e descobriu seu paradeiro. Agora, a humanidade corre perigo e talvez tenha chegado a hora das pessoas conhecerem aqueles que passarão a chama de o Super-Homem.


PARA MAIS FILMES VISITEM:
=======================================================
==== w w w . t h e p i r a t e f i l m e s . c o m ====
=======================================================

AO FIM DO DOWNLOAD FIQUE SEMEANDO/ENVIANDO, PARA QUE EU POSSA ENVIAR OUTROS FILMES COM QUALIDADE! Obrigado!

Video



ID


















: 1
Format
















: AVC
Format/Info














: Advanced Video Codec
Format profile












: [email protected]/* */
Format settings, CABAC








: Yes
Format settings, ReFrames







: 4 frames
Codec ID















: avc1
Codec ID/Info













: Advanced Video Coding
Duration















: 2h 23mn
Bit rate















: 1 946 Kbps
Maximum bit rate











: 14.1 Mbps
Width

















: 1 920 pixels
Height
















: 1 080 pixels
Display aspect ratio









: 16:9
Frame rate mode












: Constant
Frame rate














: 23.976 fps
Color space














: YUV
Chroma subsampling










: 4:2:0
Bit depth















: 8 bits
Scan type















: Progressive
Bits/(Pixel*Frame)










: 0.039
Stream size














: 1.94 GiB (94%)
Matrix coefficients










: BT.709




Audio



ID


















: 2
Format
















: MPEG Audio
Format version












: Version 1
Format profile












: Layer 3
Mode

















: Joint stereo
Mode extension












: MS Stereo
Codec ID















: 6B
Duration















: 2h 23mn
Bit rate mode













: Constant
Bit rate















: 128 Kbps
Maximum bit rate











: 132 Kbps
Channel(s)














: 2 channels
Sampling rate













: 48.0 KHz
Compression mode











: Lossy
Stream size














: 131 MiB (6%)
Title

















: PTBR
Encoded date













: UTC 2013-10-29 21:20:14
Tagged date














: UTC 2013-10-29 21:20:22