3D.HSBS.Reino.Escondido.1080p.Dublado – DEJAVUBR


Size : 1.67 GiB (1790653957 Bytes)


Reino Escondido (2013)
- 1080p 3D DUBLADO - PT-BR - DEJAVUBR

=======================================================
==== w w w . t h e p i r a t e f i l m e s . c o m ====
=======================================================



Lançamento:

17 de maio de 2013 (1h 42min)
Dirigido por:
Chris Wedge
Com:





Amanda Seyfried, Josh Hutcherson, Steven Tyler mais
Gênero:



Aventura , Animação , Família
Nacionalidade:
EUA
OBS: Filmes 3D só funcionam em TVs ou Monitores 3D

O professor Bomba (Jason Sudeikis) dedicou boa parte de sua vida às pesquisas por um povo de tamanho diminuto, que vive na floresta e cujos movimentos são rápidos demais para serem registrados pelo olho humano. Apesar de ter encontrado alguns indícios de que estes seres existem, como armas e selas de pássaros, o professor é alvo de piadas no meio científico. Além disto, a dedicação ao trabalho fez com que seu casamento fosse por água abaixo. Agora, após o falecimento de sua ex-esposa, sua filha Maria Catarina (Amanda Seyfried), ou M.K., como prefere ser chamada, vai morar com ele. A adolescente não gosta nem um pouco de morar perto da floresta e das loucuras do pai e, quando está prestes a ir embora, acaba acidentalmente sendo envolvida no confronto entre os Homens-Folha e os Boggans, os tais seres que seu pai tanto procura. Diminuída de tamanho pela rainha da floresta (Beyoncé Knowles), ela agora precisa ajudar o valente Ronin (Colin Farrell) a levar um valioso botão de flor para Nim Galuu (Steven Tyler).


PARA MAIS FILMES VISITEM:
=======================================================
==== w w w . t h e p i r a t e f i l m e s . c o m ====
=======================================================

AO FIM DO DOWNLOAD FIQUE SEMEANDO/ENVIANDO, PARA QUE EU POSSA ENVIAR OUTROS FILMES COM QUALIDADE! Obrigado!



Video

ID


















: 1
Format
















: AVC
Format/Info














: Advanced Video Codec
Format profile












: [email protected]/* */
Format settings, CABAC








: Yes
Format settings, ReFrames







: 4 frames
Codec ID















: avc1
Codec ID/Info













: Advanced Video Coding
Duration















: 1h 42mn
Bit rate















: 2 193 Kbps
Width

















: 1 920 pixels
Height
















: 1 080 pixels
Display aspect ratio









: 16:9
Frame rate mode












: Variable
Frame rate














: 23.976 fps
Minimum frame rate










: 23.976 fps
Maximum frame rate










: 24.024 fps
Color space














: YUV
Chroma subsampling










: 4:2:0
Bit depth















: 8 bits
Scan type















: Progressive
Bits/(Pixel*Frame)










: 0.044
Stream size














: 1.57 GiB (94%)





Audio

ID


















: 2
Format
















: AAC
Format/Info














: Advanced Audio Codec
Format profile












: LC
Codec ID















: 40
Duration















: 1h 42mn
Bit rate mode













: Constant
Bit rate















: 132 Kbps
Channel(s)














: 2 channels
Channel positions











: Front: L R
Sampling rate













: 44.1 KHz
Compression mode











: Lossy
Stream size














: 96.0 MiB (6%)