3D.HSBS.TURBO – DEJAVUBR


Size : 1.46 GiB (1571165798 Bytes)

Turbo (2013) 1080p 3D DUBLADO - PT-BR DEJAVUBR

=======================================================
==== w w w . t h e p i r a t e f i l m e s . c o m ====
=======================================================

Lançamento:

19 de julho de 2013 (1h36min)
Dirigido por:
David Soren
Com:





Ryan Reynolds, Samuel L. Jackson, Maya Rudolph mais
Gênero:



Animação , Aventura , Comédia
Nacionalidade:
EUA
OBS: Filmes 3D só funcionam em TVs ou Monitores 3D

Theo (voz original de Ryan Reynolds) é um caracol de jardim, que passa o dia com outros caracóis, colhendo tomates e torcendo para não ser capturado por aves predadoras. Apesar da vida pacata, este jovem animal sonha em se tornar extremamente veloz, como o seu ídolo, o corredor campeão de Indianápolis Guy Gagné (voz original de Bill Hader). A obsessão pela velocidade faz que com Theo seja ridicularizado pelos colegas. Um dia, no entanto, ele cai acidentalmente dentro do motor de um grande carro de corrida, e um efeito inesperado acontece em seu corpo, fazendo com que ele se torne extremamente veloz. Rebatizado Turbo, o caracol encontra abrigo na casa de Tito (voz original de Michael Peña), um vendedor de comida mexicana conhecido pelos planos inusitados e que quase sempre dão errado. Surpreso com a velocidade de Turbo, Tito decide levá-lo à corrida de Indianápolis, para competir com Guy Gagné.


PARA MAIS FILMES VISITEM:
=======================================================
==== w w w . t h e p i r a t e f i l m e s . c o m ====
=======================================================

AO FIM DO DOWNLOAD FIQUE SEMEANDO/ENVIANDO, PARA QUE EU POSSA ENVIAR OUTROS FILMES COM QUALIDADE! Obrigado!


Video


ID


















: 2
Format
















: AVC
Format/Info














: Advanced Video Codec
Format profile












: [email protected]/* */
Format settings, CABAC








: Yes
Format settings, ReFrames







: 4 frames
Codec ID















: avc1
Codec ID/Info













: Advanced Video Coding
Duration















: 1h 35mn
Bit rate















: 2 060 Kbps
Maximum bit rate











: 21.3 Mbps
Width

















: 1 920 pixels
Height
















: 1 080 pixels
Display aspect ratio









: 16:9
Frame rate mode












: Constant
Frame rate














: 23.976 fps
Color space














: YUV
Chroma subsampling










: 4:2:0
Bit depth















: 8 bits
Scan type















: Progressive
Bits/(Pixel*Frame)










: 0.041
Stream size














: 1.38 GiB (94%)




Audio


ID


















: 1
Format
















: AAC
Format/Info














: Advanced Audio Codec
Format profile












: LC
Codec ID















: 40
Duration















: 1h 35mn
Bit rate mode













: Variable
Bit rate















: 125 Kbps
Maximum bit rate











: 199 Kbps
Channel(s)














: 2 channels
Channel positions











: Front: L R
Sampling rate













: 44.1 KHz
Compression mode











: Lossy
Stream size














: 85.8 MiB (6%)