3D.O.MASSACRE.A.LENDA.CONTINUA- DEJAVUBR


Size : 1.41 GiB (1511131646 Bytes)

O Massacre da Serra Elétrica - A Lenda Continua (2013)





1080p 3D DUBLADO - PT-BR DEJAVUBR

=======================================================
==== w w w . t h e p i r a t e f i l m e s . c o m ====
=======================================================


Lançamento:

17 de maio de 2013 (1h 32min)
Dirigido por:
John Luessenhop
Com:





Alexandra Daddario, Dan Yeager, Trey Songz mais
Gênero:



Terror
Nacionalidade:
EUA
OBS: Filmes 3D só funcionam em TVs ou Monitores 3D


1974, uma pequena cidade no interior do Texas. Uma garota escapou de um massacre que matou cinco pessoas e é criada sem saber a verdade sobre seu passado. Já adulta, Heather Mills (Alexandra Daddario) é surpreendida ao ser informada que é a beneficiária da herança de uma avó que nem sabia existir. Ao lado dos amigos Nikki (Tania Raymonde), Ryan (Trey Songz) e Kenny (Kerum Milicki-Sanchez), Heather viaja ao Texas para conhecer a mansão que herdou. Entretanto, ela tem duas regras a seguir: não pode vender a mansão e precisa seguir à risca as instruções deixadas pela avó em uma carta. O problema é que, antes mesmo de abrir esta carta, Heather é surpreendida por outro parente que também sobreviveu ao massacre de décadas atrás.


PARA MAIS FILMES VISITEM:
=======================================================
==== w w w . t h e p i r a t e f i l m e s . c o m ====
=======================================================

AO FIM DO DOWNLOAD FIQUE SEMEANDO/ENVIANDO, PARA QUE EU POSSA ENVIAR OUTROS FILMES COM QUALIDADE! Obrigado!



Video


ID


















: 1
Format
















: AVC
Format/Info














: Advanced Video Codec
Format profile












: [email protected]/* */
Format settings, CABAC








: Yes
Format settings, ReFrames







: 8 frames
Codec ID















: avc1
Codec ID/Info













: Advanced Video Coding
Duration















: 1h 31mn
Bit rate















: 2 151 Kbps
Maximum bit rate











: 11.0 Mbps
Width

















: 1 920 pixels
Height
















: 1 080 pixels
Display aspect ratio









: 16:9
Frame rate mode












: Constant
Frame rate














: 23.976 fps
Color space














: YUV
Chroma subsampling










: 4:2:0
Bit depth















: 8 bits
Scan type















: Progressive
Bits/(Pixel*Frame)










: 0.043
Stream size














: 1.38 GiB (96%)
Tagged date














: UTC 2013-05-01 12:28:34




Audio


ID


















: 2
Format
















: AAC
Format/Info














: Advanced Audio Codec
Format profile












: LC
Codec ID















: 40
Duration















: 1h 31mn
Bit rate mode













: Variable
Bit rate















: 96.0 Kbps
Maximum bit rate











: 115 Kbps
Channel(s)














: 2 channels
Channel positions











: Front: L R
Sampling rate













: 48.0 KHz
Compression mode











: Lossy
Stream size














: 63.1 MiB (4%)
Language















: English