47.Ronin(2013)1080p.3D.HSBS. Español y Latino BluRay.x26


Size : 2.46 GiB (2641378302 Bytes)



Basada en una leyenda japonesa. Siglo XVIII. Kai (Keanu Reeves) es un paria que se une a Oishi (Hiroyuki Sanada), el jefe de los 47 Ronin. Su objetivo es vengarse del traidor que mató a su señor y los condenó al destierro. Para recuperar el honor perdido, los guerreros emprenden una aventura que les obligará a superar duras prueba



47.Ronin.2013.1080p.3D.HSBS. Español y Latino BluRay.x264.mkv
Format












: Matroska
File size











: 2.46 GiB
Duration











: 1h 58mn
Overall bit rate







: 2 965 Kbps
Encoded date









: UTC 2014-05-14 21:31:20
Writing application






: mkvmerge v6.6.0 ('The Edge Of The In Between') built on Dec
1 2013 17:55:00
Writing library








: libebml v1.3.0 + libmatroska v1.4.1

Video
ID














: 1
Format












: AVC
Format/Info










: Advanced Video Codec
Format profile








: [email protected]/* */
Format settings, CABAC




: Yes
Format settings, ReFrames



: 4 frames
Codec ID











: V_MPEG4/ISO/AVC
Duration











: 1h 58mn
Bit rate











: 2 133 Kbps
Width













: 1 920 pixels
Height












: 1 080 pixels
Display aspect ratio





: 16:9
Frame rate










: 23.976 fps
Color space










: YUV
Chroma subsampling






: 4:2:0
Bit depth











: 8 bits
Scan type











: Progressive
Bits/(Pixel*Frame)






: 0.043
Stream size










: 1.72 GiB (70%)
Writing library








: x264 core 135 r2 f0c1c53
Encoding settings







: cabac=1 / ref=4 / deblock=1:-1:-1 / analyse=0x3:0x133 / me=umh / subme=9 / psy=1 / psy_rd=1.00:0.15 / mixed_ref=1 / me_range=24 / chroma_me=1 / trellis=2 / 8x8dct=1 / cqm=0 / deadzone=21,11 / fast_pskip=0 / chroma_qp_offset=-3 / threads=18 / lookahead_threads=1 / sliced_threads=0 / nr=0 / decimate=1 / interlaced=0 / bluray_compat=0 / constrained_intra=0 / bframes=3 / b_pyramid=2 / b_adapt=2 / b_bias=0 / direct=3 / weightb=1 / open_gop=0 / weightp=2 / keyint=250 / keyint_min=23 / scenecut=40 / intra_refresh=0 / rc_lookahead=60 / rc=2pass / mbtree=1 / bitrate=2133 / ratetol=1.0 / qcomp=0.60 / qpmin=0 / qpmax=69 / qpstep=4 / cplxblur=20.0 / qblur=0.5 / vbv_maxrate=31250 / vbv_bufsize=31250 / nal_hrd=none / ip_ratio=1.40 / aq=1:1.00
Color primaries








: BT.709-5, BT.1361, IEC 61966-2-4, SMPTE RP177
Matrix coefficients






: BT.709-5, BT.1361, IEC 61966-2-4 709, SMPTE RP177

Audio #1
ID














: 2
Format












: AC-3
Format/Info










: Audio Coding 3
Mode extension








: CM (complete main)
Codec ID











: A_AC3
Duration











: 1h 58mn
Bit rate mode









: Constant
Bit rate











: 384 Kbps
Channel(s)










: 6 channels
Channel positions







: Front: L C R, Side: L R, LFE
Sampling rate









: 48.0 KHz
Bit depth











: 16 bits
Compression mode







: Lossy
Stream size










: 326 MiB (13%)
Language











: Spanish

Audio #2
ID














: 3
Format












: AC-3
Format/Info










: Audio Coding 3
Mode extension








: CM (complete main)
Codec ID











: A_AC3
Duration











: 1h 58mn
Bit rate mode









: Constant
Bit rate











: 448 Kbps
Channel(s)










: 6 channels
Channel positions







: Front: L C R, Side: L R, LFE
Sampling rate









: 48.0 KHz
Bit depth











: 16 bits
Compression mode







: Lossy
Delay relative to video




: 550ms
Stream size










: 381 MiB (15%)
Language











: Latin