8 Seconds 1994 {DVDRip}{5.1}{MP4}{PcTechPaul}


Size : 1.2 GiB (1291405460 Bytes)

*****************************************************************










8 Seconds (1994)

*****************************************************************
Encoded By PcTechPaul

[img]http://ia.media-imdb.com/images/M/MV5BMzE4MjczOTc2MF5BMl5BanBnXkFtZTcwNDMxNTYyMQ@@._V1_SY317_CR6,0,214,317_.jpg[/img]
-------------------------------------------------------------------------------















General Information
-------------------------------------------------------------------------------
Type.................: Movie
Platform.............: Video
More Info............:
Video Format.........: mp4
Video Bitrate........: 11280
Resolution...........: 720p
Color................: 8 bit
FPS..................: 23.976
Source...............: DVD
Original Format......: NTSC
Genre................: Biography | Drama | Sport
IMDb Rating..........: 6.3
Movie Information....: http://www.imdb.com/title/tt0109021/

-------------------------------------------------------------------------------
















Release Notes
-------------------------------------------------------------------------------
Complete name













: M:8 Seconds8seconds.mp4
Format
















: MPEG-4
Format profile












: Base Media / Version 2
Codec ID















: mp42
File size















: 1.20 GiB
Duration















: 1h 44mn
Overall bit rate mode









: Variable
Overall bit rate











: 1644 Kbps

Video
ID


















: 1
Format
















: AVC
Format/Info














: Advanced Video Codec
Format profile












: [email protected]/* */
Format settings, CABAC








: Yes
Format settings, ReFrames







: 16 frames
Codec ID















: avc1
Codec ID/Info













: Advanced Video Coding
Duration















: 1h 44mn
Bit rate















: 1 320 Kbps
Width

















: 720 pixels
Height
















: 468 pixels
Display aspect ratio









: 16:9
Frame rate mode












: Variable
Frame rate














: 23.976 fps
Minimum frame rate










: 23.974 fps
Maximum frame rate










: 23.981 fps
Color space














: YUV
Chroma subsampling










: 4:2:0
Bit depth















: 8 bits
Scan type















: Progressive
Bits/(Pixel*Frame)










: 0.163
Stream size














: 986 MiB (80%)
Writing library












: x264 core 130 r2273 b3065e6
Encoding settings











: cabac=1 / ref=16 / deblock=1:0:0 / analyse=0x3:0x113 / me=hex / subme=7 / psy=1 / psy_rd=1.20:0.20 / mixed_ref=1 / me_range=16 / chroma_me=1 / trellis=1 / 8x8dct=1 / cqm=0 / deadzone=21,11 / fast_pskip=1 / chroma_qp_offset=-3 / threads=12 / lookahead_threads=2 / sliced_threads=0 / nr=0 / decimate=1 / interlaced=0 / bluray_compat=0 / constrained_intra=0 / bframes=16 / b_pyramid=2 / b_adapt=1 / b_bias=0 / direct=1 / weightb=1 / open_gop=0 / weightp=2 / keyint=240 / keyint_min=24 / scenecut=40 / intra_refresh=0 / rc_lookahead=40 / rc=2pass / mbtree=1 / bitrate=1320 / ratetol=1.0 / qcomp=0.60 / qpmin=0 / qpmax=69 / qpstep=4 / cplxblur=20.0 / qblur=0.5 / ip_ratio=1.40 / aq=1:1.20

Color primaries












: BT.601 NTSC
Transfer characteristics







: BT.709
Matrix coefficients










: BT.601

Audio
ID


















: 2
Format
















: AAC
Format/Info














: Advanced Audio Codec
Format profile












: LC
Codec ID















: 40
Duration















: 1h 44mn
Bit rate mode













: Variable
Bit rate















: 320 Kbps
Maximum bit rate











: 408 Kbps
Channel(s)














: 6 channels
Channel positions











: Front: L C R, Side: L R, LFE
Sampling rate













: 48.0 KHz
Compression mode











: Lossy
Stream size














: 239 MiB (19%)
Language















: English