A Perfect Getaway Directors cut (PSP + Ipod touch + Zune)


Size : 401.64 MiB (421147354 Bytes)

A perfect getaway Directors cut
source :
A Perfect Getaway Unrated Directors Cut 2009 BRRip XvidHD 720p-NPW
http://www.imdb.com/title/tt0971209/
Two pairs of lovers (Zahn & Jovovich, Olyphant & Sanchez) on a Hawaiian vacation discover
that psychopaths are stalking and murdering tourists on the islands.
ID














: 1 Format












: AVC Format/Info










: Advanced Video Codec Format profile








: [email protected]/* */ Format settings, CABAC




: No Format settings, ReFrames



: 2 frames Codec ID











: avc1 Codec ID/Info









: Advanced Video Coding Duration











: 1h 47mn Bit rate mode









: Variable Bit rate











: 390 Kbps Width













: 480 pixels Height












: 208 pixels Display aspect ratio





: 2.35:1 Frame rate mode








: Variable Frame rate










: 23.976 fps Minimum frame rate






: 11.989 fps Maximum frame rate






: 23.981 fps Color space










: YUV Chroma subsampling






: 4:2:0 Bit depth











: 8 bits Scan type











: Progressive Bits/(Pixel*Frame)






: 0.163 Stream size










: 300 MiB (75%) Writing library








: x264 core 79
ID














: 2 Format












: AAC Format/Info










: Advanced Audio Codec Format version








: Version 4 Format profile








: LC Format settings, SBR





: No Codec ID











: 40 Duration











: 1h 47mn Bit rate mode









: Variable Bit rate











: 128 Kbps Maximum bit rate







: 210 Kbps Channel(s)










: 2 channels Channel positions







: Front: L R Sampling rate









: 48.0 KHz Stream size










: 98.5 MiB (25%) http://img52.imageshack.us/gal.php?g=vlcsnap00001d.png
PLEASE LET THE TORRENT SEED AND SHARE IT WITH ALL YOU KNOW!
Let me know what I can do to be your trusted source of Handheld videos.
-OOO (on.off.on)