Adele – Hello [1080p]


Size : 103.8 MiB (108838787 Bytes)

Capturas: http://i.imgur.com/YjiIttM.jpg


General

Format











: MPEG-4
Format profile







: Base Media
Codec ID










: isom
File size










: 104 MiB
Duration










: 6mn 6s
Overall bit rate






: 2 373 Kbps
Writing application





: Lavf55.33.100

Video
ID













: 1
Format











: AVC
Format/Info









: Advanced Video Codec
Format profile







: [email protected]/* */
Format settings, CABAC



: Yes
Format settings, ReFrames


: 3 frames
Codec ID










: avc1
Codec ID/Info








: Advanced Video Coding
Duration










: 6mn 6s
Bit rate










: 2 241 Kbps
Width












: 1 920 pixels
Height











: 1 080 pixels
Display aspect ratio




: 16:9
Frame rate mode







: Variable
Frame rate









: 23.976 fps
Minimum frame rate





: 23.974 fps
Maximum frame rate





: 90 000.000 fps
Color space









: YUV
Chroma subsampling





: 4:2:0
Bit depth










: 8 bits
Scan type










: Progressive
Bits/(Pixel*Frame)





: 0.045
Stream size









: 98.0 MiB (94%)

Audio
ID













: 2
Format











: AAC
Format/Info









: Advanced Audio Codec
Format profile







: LC
Codec ID










: 40
Duration










: 6mn 6s
Bit rate mode








: Constant
Bit rate










: 126 Kbps
Channel(s)









: 2 channels
Channel positions






: Front: L R
Sampling rate








: 44.1 KHz
Compression mode






: Lossy
Stream size









: 5.49 MiB (5%)