Adele – Hello [Music Video] 720p [Sbyky]


Size : 57.77 MiB (60571562 Bytes)

General
Complete name













: Adele - Hello [Music Video] 720p [Sbyky].mp4
Format
















: MPEG-4
Format profile












: Base Media
Codec ID















: isom (isom/iso2/avc1/mp41)
File size















: 57.8 MiB
Duration















: 6 min 6 s
Overall bit rate mode









: Variable
Overall bit rate











: 1 321 kb/s
Encoded date













: UTC 2015-10-24 10:22:25
Tagged date














: UTC 2015-10-24 10:22:25

Video
ID


















: 1
Format
















: AVC
Format/Info














: Advanced Video Codec
Format profile












: [email protected]/* */
Format settings, CABAC








: Yes
Format settings, ReFrames







: 3 frames
Codec ID















: avc1
Codec ID/Info













: Advanced Video Coding
Duration















: 6 min 6 s
Bit rate















: 1 191 kb/s
Width

















: 1 280 pixels
Height
















: 720 pixels
Display aspect ratio









: 16:9
Frame rate mode












: Variable
Frame rate














: 23.976 (24000/1001) FPS
Minimum frame rate










: 23.974 FPS
Maximum frame rate










: 23.981 FPS
Color space














: YUV
Chroma subsampling










: 4:2:0
Bit depth















: 8 bits
Scan type















: Progressive
Bits/(Pixel*Frame)










: 0.054
Stream size














: 52.1 MiB (90%)
Encoded date













: UTC 2015-10-24 10:22:25
Tagged date














: UTC 2015-10-24 10:22:25

Audio
ID


















: 2
Format
















: AAC
Format/Info














: Advanced Audio Codec
Format profile












: LC
Codec ID















: 40
Duration















: 6 min 6 s
Bit rate mode













: Variable
Bit rate















: 126 kb/s
Channel(s)














: 2 channels
Channel positions











: Front: L R
Sampling rate













: 44.1 kHz
Frame rate














: 43.066 FPS (1024 spf)
Compression mode











: Lossy
Stream size














: 5.49 MiB (10%)
Default
















: Yes
Alternate group












: 1
Encoded date













: UTC 2015-10-24 10:21:35
Tagged date














: UTC 2015-10-24 10:21:35

Shared By Sbyky
[IMG]http://i.imgur.com/vZ960QE.gif[/IMG]
[IMG]http://i.imgur.com/8PlzFy0.gif[/IMG]