Alan Walker ft. Iselin Solheim – Faded (2015-2016)


Size : 118.92 MiB (124697316 Bytes)

 http://gifyu.com/images/faded.png



















MEDIA INFO

Alan Walker ft. Iselin Solheim - Faded
Format
















: MPEG-4
Format profile












: Base Media
Codec ID















: isom (isom/iso2/avc1/mp41)
File size















: 55.2 MiB
Duration















: 3mn 32s
Overall bitrate












: 2 177 Kbps
MusicVid Name













: Faded
Performer















: Alan Walker ft. Iselin Solheim
Publisher















: MeRaDil
Genre

















: Electro/Ballad
ContentType














: Music Video
Recorded date













: 2015
Writing application










: Lavf56.32.100/MeRaDil
Cover

















: Yes
Rating
















: ****
Releasedate














: Norway - december 3 - 2015
http://gifyu.com/images/faded2.png

Video
ID


















: 1
Format
















: AVC
Format/Info














: Advanced Video Codec
Format profile












: [email protected]/* */
Format settings, CABAC








: Yes
Format settings, ReFrames







: 3 frames
Codec ID















: avc1
Codec ID/Info













: Advanced Video Coding
Duration















: 3mn 32s
Bit rate















: 1 908 Kbps
Width

















: 1 920 pixels
Height
















: 1 080 pixels
Display aspect ratio









: 16:9
Frame rate mode












: Constant
Frame rate














: 25.000 fps
Color space














: YUV
Chroma subsampling










: 4:2:0
Bit depth















: 8 bits
Scan type















: Progressive
Bits/(Pixel*Frame)










: 0.037
Stream size














: 48.3 MiB (88%)
Color range














: Limited

Audio
ID


















: 2
Format
















: AAC
Format/Info














: Advanced Audio Codec
Format profile












: LC
Codec ID















: 40
Duration















: 3mn 32s
Bit rate mode













: Constant
Bit rate















: 256 Kbps
Channel(s)














: 2 channels
Channel positions











: Front: L R
Sampling rate













: 44.1 KHz
Frame rate














: 43.066 fps (1024 spf)
Compression mode











: Lossy
Stream size














: 6.49 MiB (12%)
Default
















: Yes
Alternate group












: 1
http://gifyu.com/images/faded1.png