Alice in Chains – MTV Unplugged – 1080p – 60 FPS – Remastered


Size : 8.16 GiB (8761337795 Bytes)

Ripped directly from DVD. Remastered: 60 FPS, Full HD (1920x1080), Cropped, Sharpened and enhanced with filters. Audio quality is superb. Full show. Enjoy the amazing music even more in this amazing quality! Buy the DVD if you really enjoyed it ;)

Regards


Screenshots:
http://imgur.com/a/j9kZN

Info:

General
Format
















: MPEG-4
Format profile












: Base Media / Version 2
Codec ID















: mp42 (mp42/mp41)
File size















: 8.16 GiB
Duration















: 1h 11mn
Overall bit rate mode









: Variable
Overall bit rate











: 16.3 Mbps
┬ęTSC

















: 60
┬ęTSZ

















: 1

Video
ID


















: 1
Format
















: AVC
Format/Info














: Advanced Video Codec
Format profile












: [email protected]/* */
Format settings, CABAC








: Yes
Format settings, ReFrames







: 3 frames
Codec ID















: avc1
Codec ID/Info













: Advanced Video Coding
Duration















: 1h 11mn
Bit rate mode













: Variable
Bit rate















: 16.0 Mbps
Width

















: 1 920 pixels
Height
















: 1 080 pixels
Display aspect ratio









: 16:9
Frame rate mode












: Constant
Frame rate














: 60.000 fps
Standard















: NTSC
Color space














: YUV
Chroma subsampling










: 4:2:0
Bit depth















: 8 bits
Scan type















: Progressive
Bits/(Pixel*Frame)










: 0.129
Stream size














: 8.00 GiB (98%)
Language















: English
Color range














: Limited
Color primaries












: BT.709
Transfer characteristics







: BT.709
Matrix coefficients










: BT.709

Audio
ID


















: 2
Format
















: AAC
Format/Info














: Advanced Audio Codec
Format profile












: LC
Codec ID















: 40
Duration















: 1h 11mn
Source duration












: 1h 11mn
Bit rate mode













: Variable
Bit rate















: 317 Kbps
Maximum bit rate











: 419 Kbps
Channel(s)














: 2 channels
Channel positions











: Front: L R
Sampling rate













: 48.0 KHz
Frame rate














: 46.875 fps (1024 spf)
Compression mode











: Lossy
Stream size














: 163 MiB (2%)
Source stream size










: 163 MiB (2%)
Language















: English