Amy Winehouse – In Concert 2007 [DTS5.1 AC35.1 AC32.0][TNT Villa


Size : 1.48 GiB (1585432899 Bytes)

.: Info :.

Production: U.S.A.
Concert date: 29 Giugno 2007



Concert location: Belfort, France



Music genre: R&B

.: Band members :.

Amy Winehouse: Vocals
Frank Tontoh: Drums
Dale Davis: Bass
Sam Beste: Keyboards
Robin Banerjee: Guitar
Hawi Gondwe: Guitar
Henry Collins: Trumpet
Francis Damuel Walden: Baritone Saxophone
James Hunt: Saxophone
Zalon Thompson: Backing Vocals
Derek Green: Backing vocals

.: Tracklist :.

1. Intro
2. Addicted
3. Just Friends
4. Tears Dry On Their Own
5. He Can Only Hold Her
6. Back to Black
7. Wake Up Alone
8. Love is a Losing Game
9. Cupid
10. Hey Little Rich Girl
11. Monkey Man
12. Rehab
13. Valerie
14. You Know I'm No Good
15. Me and Mr. Jones


.: Review :.

The astonishing Amy Winehouse - captured in concert in France at the exact moment of her international 'Back to Black' breakout.

Fronting a rocking yet suave and sophisticated ten-piece jazz and classic-r&b band - complete with backup singing and dancing -- Winehouse slinks and undulates around the stage, bringing all of her utterly original presence and sultry, soulful vocals to bear on a set of mainly original songs.

And those songs are hits: 'Back To Black,' 'Rehab,' 'You Know I'm No Good,' 'Tears Dry On Their Own,' and many others were making Winehouse a star even as she was on the tour captured here. Here she fully inhabits each of those hits, making them fodder for powerfully emotional vocal performance. And she covers Sam Cooke and Toots & The Maytals too.

A riveting evening from one of the most impressive pop stars to emerge in years.


.: Rip specs :.

General
Unique ID : 179984750397675635821069708083825397364 (0x8767CD51FEB91FB40627FF03DBF6CE74)
Format : Matroska
Format version : Version 4 / Version 2
File size : 1.48 GiB
Duration : 52mn 47s
Overall bit rate : 4 004 Kbps
Encoded date : UTC 2014-03-31 19:24:10
Writing application : mkvmerge v6.2.0 ('Promised Land') built on Apr 28 2013 18:50:30
Writing library : libebml v1.3.0 + libmatroska v1.4.0

Video
ID : 1
Format : AVC
Format/Info : Advanced Video Codec
Format profile : [email protected]/* */
Format settings, CABAC : Yes
Format settings, ReFrames : 4 frames
Codec ID : V_MPEG4/ISO/AVC
Bit rate : 1 775 Kbps
Width : 720 pixels
Height : 480 pixels
Display aspect ratio : 16:9
Frame rate mode : Variable
Standard : NTSC
Color space : YUV
Chroma subsampling : 4:2:0
Bit depth : 8 bits
Scan type : Progressive
Writing library : x264 core 130 r2273 b3065e6
Encoding settings : cabac=1 / ref=3 / deblock=1:-1:-1 / analyse=0x3:0x113 / me=hex / subme=7 / psy=1 / psy_rd=1.00:0.15 / mixed_ref=1 / me_range=16 / chroma_me=1 / trellis=1 / 8x8dct=1 / cqm=0 / deadzone=21,11 / fast_pskip=1 / chroma_qp_offset=-3 / threads=6 / lookahead_threads=1 / sliced_threads=0 / nr=0 / decimate=1 / interlaced=0 / bluray_compat=0 / constrained_intra=0 / bframes=3 / b_pyramid=2 / b_adapt=1 / b_bias=0 / direct=1 / weightb=1 / open_gop=0 / weightp=2 / keyint=240 / keyint_min=24 / scenecut=40 / intra_refresh=0 / rc_lookahead=40 / rc=crf / mbtree=1 / crf=20.0 / qcomp=0.60 / qpmin=0 / qpmax=69 / qpstep=4 / ip_ratio=1.40 / aq=1:1.00
Language : English
Default : Yes
Forced : No
Color primaries : BT.601 NTSC
Transfer characteristics : BT.709
Matrix coefficients : BT.601

Audio #1
ID : 2
Format : DTS
Format/Info : Digital Theater Systems
Mode : 16
Format settings, Endianness : Big
Codec ID : A_DTS
Duration : 52mn 47s
Bit rate mode : Constant
Bit rate : 1 510 Kbps
Channel(s) : 6 channels
Channel positions : Front: L C R, Side: L R, LFE
Sampling rate : 48.0 KHz
Bit depth : 24 bits
Compression mode : Lossy
Stream size : 570 MiB (38%)
Title : DTS 5.1
Language : English
Default : Yes
Forced : No

Audio #2
ID : 3
Format : AC-3
Format/Info : Audio Coding 3
Mode extension : CM (complete main)
Format settings, Endianness : Big
Codec ID : A_AC3
Duration : 52mn 47s
Bit rate mode : Constant
Bit rate : 448 Kbps
Channel(s) : 6 channels
Channel positions : Front: L C R, Side: L R, LFE
Sampling rate : 48.0 KHz
Bit depth : 16 bits
Compression mode : Lossy
Stream size : 169 MiB (11%)
Title : AC3 5.1
Language : English
Default : No
Forced : No

Audio #3
ID : 4
Format : AC-3
Format/Info : Audio Coding 3
Mode extension : CM (complete main)
Format settings, Endianness : Big
Codec ID : A_AC3
Duration : 52mn 47s
Bit rate mode : Constant
Bit rate : 192 Kbps
Channel(s) : 2 channels
Channel positions : Front: L R
Sampling rate : 48.0 KHz
Bit depth : 16 bits
Compression mode : Lossy
Stream size : 72.5 MiB (5%)
Title : AC3 2.0
Language : English
Default : No
Forced : No

Menu
00:00:00.000 : en:Chapter 1
00:00:41.941 : en:Chapter 2
00:01:45.305 : en:Chapter 3
00:04:32.972 : en:Chapter 4
00:07:47.900 : en:Chapter 5
00:11:09.201 : en:Chapter 6
00:14:39.612 : en:Chapter 7
00:18:58.670 : en:Chapter 8
00:22:57.476 : en:Chapter 9
00:25:37.736 : en:Chapter 10
00:29:15.320 : en:Chapter 11
00:32:48.399 : en:Chapter 12
00:36:09.167 : en:Chapter 13
00:40:36.600 : en:Chapter 14
00:44:33.270 : en:Chapter 15
00:49:04.775 : en:Chapter 16

Torrent originally uploaded by JeezusKrist @ TNT Village