Anitta part. Jhama – Essa Mina é Louca (2016)


Size : 61.79 MiB (64787677 Bytes)

MEDIA INFO

Anitta part. Jhama - Essa Mina é Louca

Format
















: MPEG-4
Format profile












: Base Media
Codec ID















: isom (isom/iso2/avc1/mp41)
File size















: 61.8 MiB
Duration















: 3mn 3s
Overall bitrate












: 2 822 Kbps
MusicVid name













: Essa Mina é Louca (This Girl is Crazy)
Album

















: Bang!
Performer















: Anitta part. Jhama
Genre

















: Pop
ContentType














: Music Video
Recorded date













: 2016
Writing application










: Lavf56.32.100 / MeRaDil
Cover

















: Yes
Rating
















: ***
Artist url














: http://anittaoficial.com/
Release time













: Brazil . january 14 . 2016
http://www.topy.se/images/anitta-2f0317.png

Video
ID


















: 1
Format
















: AVC
Format/Info














: Advanced Video Codec
Format profile












: [email protected]/* */
Format settings, CABAC








: Yes
Format settings, ReFrames







: 3 frames
Codec ID















: avc1
Codec ID/Info













: Advanced Video Coding
Duration















: 3mn 3s
Bit rate















: 2 546 Kbps
Width

















: 1 920 pixels
Height
















: 1 080 pixels
Display aspect ratio









: 16:9
Frame rate mode












: Constant
Frame rate














: 25.000 fps
Color space














: YUV
Chroma subsampling










: 4:2:0
Bit depth















: 8 bits
Scan type















: Progressive
Bits/(Pixel*Frame)










: 0.049
Stream size














: 55.7 MiB (90%)

Audio
ID


















: 2
Format
















: AAC
Format/Info














: Advanced Audio Codec
Format profile












: LC
Codec ID















: 40
Duration















: 3mn 3s
Bit rate mode













: Constant
Bit rate















: 256 Kbps
Channel(s)














: 2 channels
Channel positions











: Front: L R
Sampling rate













: 44.1 KHz
Frame rate














: 43.066 fps (1024 spf)
Compression mode











: Lossy
Stream size














: 5.61 MiB (9%)
Default
















: Yes
Alternate group












: 1
http://www.topy.se/images/anitta-14b776.png
http://www.topy.se/images/anittab5e0f.png