Ariana Grande ft. Iggy Azalea – Problem (2014) 720p x264 MP3 E-S


Size : 41.51 MiB (43531137 Bytes)

Ariana Grande ft. Iggy Azalea - Problem 720p x264 AAC E-Subs [GWC]



COVER : http://i.imgur.com/tIR8JTY.jpg



Ariana Grande has one less "Problem" now that she's released one brand-new music video for the chart-topping song!

With dizzying backdrops, crazy contortionists, go-go dancers and Iggy Azalea's big, bouffant hair reminiscent of Nancy Sinatra's classic "These Boots Are Made for Walkin'" video, the visuals are definitively '60s mod-style.



THUMBNAIL IMAGE : http://i.imgur.com/BvX9Pjr.jpg


I colored the subtitles a bit. Let me know if you like it so I can continue next time
:)


MEDIA INFO :
General
Format : MPEG-4
Format profile : Base Media
File size : 41.5 MiB
Duration : 3mn 27s
Overall bit rate mode : Variable
Overall bit rate : 1 681 Kbps

Video
Format : AVC
Format profile : [email protected]/* */
Format settings, CABAC : Yes
Format settings, ReFrames : 3 frames
Duration : 3mn 27s
Bit rate : 1 549 Kbps
Width : 1 280 pixels
Height : 720 pixels
Display aspect ratio : 16:9
Frame rate mode : Variable
Frame rate : 23.976 fps
Stream size : 38.2 MiB (92%)
Title : Ariana Grande ft. Iggy Azalea - Problem 720p x264 AAC E-Subs [GWC]
Tagged date : UTC 2014-05-31 08:06:45

Audio
Format : MPEG Audio
Format version : Version 1
Format profile : Layer 3
Bit rate mode : Variable
Channel(s) : 2 channels
Sampling rate : 44.1 KHz
Stream size : 3.16 MiB (8%)
Writing library : LAME3.99.3
Language : English

Text
Format : Timed Text
Title : Rainbow Subs by [GWC]
Language : English