Ariana Grande ft. The Weeknd – Love Me Harder (2014.Pop)


Size : 80.78 MiB (84700620 Bytes)

ARIANA GRANDE ft.THE WEEKND - LOVE ME HARDER


http://gifyu.com/images/ArianaGrande.png


MPEG4 MUSIC VID
General
Name

















: Ariana Grande ft. The Weeknd - Love Me Harder
Format
















: MPEG-4
Format profile












: Base Media
Codec ID















: isom
File size















: 80.8 MiB
Duration















: 4mn 10s
Overall bit rate











: 2 700 Kbps
MusicVid name













: Love Me Harder
Album

















: My Everything
Performer















: Ariana Grande & The Weeknd
Genre

















: Pop
ContentType














: Music Video
Recorded date













: 2014
ISRC

















: The Promo Bay
Copyright















: Ariana Grande
Cover

















: Yes
Rating
















: ***
Make

















: MeRaDil
oday

















: 03-11-2014
USA
rati

















: (Binary)
artist url














: http://www.arianagrande.com
label

















: Republic
release
















: USA . november 3 . 2014
Part_ID
















: Love Me Harder

Video
ID


















: 1
Format
















: AVC
Format/Info














: Advanced Video Codec
Format profile












: [email protected]/* */
Format settings, CABAC








: Yes
Format settings, ReFrames







: 2 frames
Codec ID















: avc1
Codec ID/Info













: Advanced Video Coding
Duration















: 4mn 10s
Bit rate















: 2 436 Kbps
Width

















: 1 920 pixels
Height
















: 1 080 pixels
Display aspect ratio









: 16:9
Frame rate mode












: Variable
Frame rate














: 23.976 fps
Minimum frame rate










: 23.974 fps
Maximum frame rate










: 23.981 fps
Color space














: YUV
Chroma subsampling










: 4:2:0
Bit depth















: 8 bits
Scan type















: Progressive
Bits/(Pixel*Frame)










: 0.049
Stream size














: 72.9 MiB (90%)

Audio
ID


















: 2
Format
















: AAC
Format/Info














: Advanced Audio Codec
Format profile












: LC
Codec ID















: 40
Duration















: 4mn 10s
Bit rate mode













: Constant
Bit rate















: 256 Kbps
Channel(s)














: 2 channels
Channel positions











: Front: L R
Sampling rate













: 44.1 KHz
Compression mode











: Lossy
Stream size














: 7.66 MiB (9%)

Ariana Grande * My Everything
https://thepiratebay.se/user/MeRaDil

:)