Arrow S05E08 Invasion 1080p WEB-DL HEVC DD5.1 x265


Size : 691.1 MiB (724668147 Bytes)

Source:Arrow S05E08 Invasion 1080p WEB-DL DD5.1 H264-DRACULA (1.64 GB)


Complete name: Arrow.S05E08.Invasion.1080p.WEB-DL.HEVC.DD5.1.x265.mkv
Format
















: Matroska
Format version












: Version 4 / Version 2
File size















: 691 MiB
Duration















: 42mn 21s
Overall bit rate











: 2 281 Kbps
Writing application










: Lavf57.25.100

Video

ID


















: 1
Format
















: V_MPEGH/ISO/HEVC
Duration















: 42mn 21s
Bit rate















: 1 851 Kbps
Width

















: 1 916 pixels
Height
















: 1 076 pixels
Display aspect ratio









: 16:9
Frame rate














: 25.000 fps
Bits/(Pixel*Frame)










: 0.036
Stream size














: 561 MiB (81%)
Default
















: Yes
Forced
















: No
DURATION















: 00:42:21.931000000

Audio

ID


















: 2
Format
















: AC-3
Format/Info














: Audio Coding 3
Mode extension












: CM (complete main)
Format settings, Endianness






: Big
Codec ID















: A_AC3
Duration















: 42mn 21s
Bit rate mode













: Constant
Bit rate















: 384 Kbps
Channel(s)














: 6 channels
Channel positions











: Front: L C R, Side: L R, LFE
Sampling rate













: 48.0 KHz
Bit depth















: 16 bits
Compression mode











: Lossy
Stream size














: 116 MiB (17%)
Writing library












: Lavc57.24.102 ac3
Default
















: Yes
Forced
















: No
DURATION















: 00:42:21.951000000

Text

ID


















: 3
Codec ID















: S_TEXT/ASS
Language















: English