Avicii – Hey Brother 720p x264 AAC E-Subs [GWC].mp4


Size : 47.8 MiB (50123070 Bytes)

Avicii - Hey Brother 720p x264 AAC E-Subs [GWC]




COVER : http://s20.postimg.org/65pxl5szh/add.jpg



THUMBNAIL IMAGE : http://img17.imageshack.us/img17/3087/xk4p.jpg





MEDIA INFO :
General
Format : MPEG-4
Format profile : Base Media
File size : 47.8 MiB
Duration : 4mn 23s
Overall bit rate mode : Variable
Overall bit rate : 1 524 Kbps

Video
Format : AVC
Format profile : [email protected]/* */
Duration : 4mn 22s
Source duration : 4mn 22s
Bit rate : 1 439 Kbps
Width : 1 280 pixels
Height : 720 pixels
Display aspect ratio : 16:9
Frame rate : 23.976 fps
Stream size : 45.1 MiB (94%)
Title : Avicii - Hey Brother 720p x264 AAC E-Subs [GWC]

Audio
Format : AAC
Format profile : LC
Duration : 4mn 23s
Bit rate mode : Variable
Channel(s) : 2 channels
Sampling rate : 48.0 KHz
Stream size : 2.61 MiB
Language : English

Text
Format : Timed Text
Duration : 4mn 20s
Stream size : 2.00 KiB (0%)
Title : English Subtitle by [GWC]
Language : English