Avicii – Wake Me Up (Official Video) Full HD 1080p.MP4


Size : 80.39 MiB (84298743 Bytes)

===================================================================
General
Complete name






: Avicii - Wake Me Up (Official Video)
Full HD 1080p.MP4
Format










: MPEG-4
Format profile






: Base Media
Codec ID









: isom (isom/iso2/avc1/mp41)
File size








: 80.4 MiB
Duration









: 4 min 32 s
Overall bit rate mode


: Variable
Overall bit rate





: 2 475 kb/s
Encoded date







: UTC 2016-05-21 02:33:29
Tagged date







: UTC 2016-05-21 02:33:29
====================================================================
Video
ID












: 1
Format










: AVC
Format/Info







: Advanced Video Codec
Format profile






: [email protected]/* */
Format settings, CABAC


: Yes
Format settings, ReFrames
: 3 frames
Codec ID









: avc1
Codec ID/Info






: Advanced Video Coding
Duration









: 4 min 32 s
Bit rate









: 2 346 kb/s
Width










: 1 920 pixels
Height










: 1 080 pixels
Display aspect ratio



: 16:9
Frame rate mode





: Variable
Frame rate








: 23.976 (24000/1001) FPS
Minimum frame rate




: 23.974 FPS
Maximum frame rate




: 23.981 FPS
===================================================================
Color space







: YUV
Chroma subsampling




: 4:2:0
Bit depth








: 8 bits
Scan type








: Progressive
Bits/(Pixel*Frame)




: 0.047
Stream size







: 76.2 MiB (95%)
Encoded date







: UTC 2016-05-21 02:33:29
Tagged date







: UTC 2016-05-21 02:33:29
Color range







: Limited
Color primaries





: BT.709
Transfer characteristics

: BT.709
Matrix coefficients



: BT.709
===================================================================
Audio
ID












: 2
Format










: AAC
Format/Info







: Advanced Audio Codec
Format profile






: LC
Codec ID









: 40
Duration









: 4 min 32 s
Bit rate mode






: Variable
Bit rate









: 126 kb/s
Channel(s)








: 2 channels
Channel positions




: Front: L R
Sampling rate






: 44.1 kHz
Frame rate








: 43.066 FPS (1024 spf)
Compression mode





: Lossy
Stream size







: 4.08 MiB (5%)
Default









: Yes
Alternate group





: 1
Encoded date







: UTC 2016-05-21 02:29:21
Tagged date







: UTC 2016-05-21 02:29:21
==================================================================== http://extraimage.net/image/wAFT