Ballers S01 Season 1 Complete 720p BluRay ~{KiNg}


Size : 2.7 GiB (2901710103 Bytes)

General
Format : Matroska
Format version : Version 4 / Version 2
File size : 289 MiB
Duration : 30mn 13s
Overall bit rate : 1 335 Kbps

Video
ID : 1
Format : AVC
Format/Info : Advanced Video Codec
Format profile : [email protected]/* */
Format settings, CABAC : Yes
Format settings, ReFrames : 4 frames
Codec ID : V_MPEG4/ISO/AVC
Duration : 30mn 13s
Bit rate : 1 241 Kbps
Width : 1 280 pixels
Height : 720 pixels
Display aspect ratio : 16:9
Frame rate mode : Constant
Frame rate : 23.976 (24000/1001) fps
Color space : YUV
Chroma subsampling : 4:2:0
Bit depth : 8 bits
Scan type : Progressive
Bits/(Pixel*Frame) : 0.056
Stream size : 268 MiB (93%)

Audio
ID : 2
Format : AAC
Format/Info : Advanced Audio Codec
Format profile : LC
Codec ID : A_AAC
Duration : 30mn 13s
Bit rate : 80.7 Kbps
Channel(s) : 2 channels
Channel positions : Front: L R
Sampling rate : 48.0 KHz
Frame rate : 46.875 fps (1024 spf)
Compression mode : Lossy
Delay relative to video : 9ms
Stream size : 17.4 MiB (6%)
Language : English
Default : No
Forced : No

Text
ID : 3
Format : VobSub
Muxing mode : zlib
Codec ID : S_VOBSUB
Codec ID/Info : Picture based subtitle format used on DVDs
Duration : 29mn 10s
Bit rate : 10.7 Kbps
Count of elements : 648
Stream size : 2.23 MiB (1%)
Language : English
Default : No
Forced : No




PLEASE SEED!!