Bandit Queen 1994 HQ 1080p Blu-ray x264 DTS-HDMA 2.0 ESub -DDR


Size : 9.83 GiB (10552751813 Bytes)

- HollywooD MoviE -
**- Bandit Queen -**
- 1994 -
** HQ 1080p Blu-Ray / x264 / DTS-HDMA 2.0 **
English subtitle(s)

~* SCREENSHOTS *~
http://extraimage.net/image/azY7 http://extraimage.net/image/azYs http://extraimage.net/image/azYn http://extraimage.net/image/azYj http://extraimage.net/image/azYT http://extraimage.net/image/azYN http://extraimage.net/image/azY2 http://extraimage.net/image/azYw


[ Specs ]
General
Source = BD50 @ HDT
Format : Matroska
File size : 9.72 GiB
Duration : 1h 59mn
Overall bit rate : 11.6 Mbps

Video
Format : AVC
Format profile : [email protected]/* */
Bit rate : 10 000 Kbps
Height : 1 080 pixels
Display aspect ratio : 16:9
Frame rate mode : Constant
Frame rate : 23.976 (24000/1001) fps
Bit depth : 8 bits
Scan type : Progressive
Stream size : 8.35 GiB (86%)
Transfer characteristics : BT.709

Audio #1
Format : DTS
Format/Info : Digital Theater Systems
Format profile : MA / Core
Mode : 16
Format settings, Endianness : Big
Codec ID : A_DTS
Duration : 1h 59mn
Bit rate mode : Variable / Constant
Bit rate : 1 635 Kbps / 768 Kbps
Channel(s) : 2 channels
Channel positions : Front: L R
Sampling rate : 48.0 KHz
Frame rate : 93.750 fps (512 spf)
Bit depth : 24 bits
Compression mode : Lossless / Lossy
Stream size : 1.37 GiB (14%)
Language : Hindi
Default : Yes
Forced : No

Chapters: YES
Sample: YES - included

A DDR Exclusive Release...!