Batman.v.Superman.Dawn.of.Justice.2016.Ultimate.Edition.1080p.WE


Size : 6.22 GiB (6678889496 Bytes)

screens:
https://imgmak.com/TBp
https://imgmak.com/TBR
https://imgmak.com/TBb
https://imgmak.com/TBx

Batman.v.Superman.Dawn.of.Justice.2016.Ultimate.Edition.1080p.WEB-DL.DD5.1.H264-RARBG

Mediainfo :

Video
ID : 1
Format : AVC
Format/Info : Advanced Video Codec
Format profile : [email protected]/* */
Format settings, CABAC : Yes
Format settings, ReFrames : 5 frames
Codec ID : V_MPEG4/ISO/AVC
Duration : 3h 2mn
Bit rate : 4 397 Kbps
Width : 1 916 pixels
Height : 796 pixels
Display aspect ratio : 2.40:1
Frame rate mode : Constant
Frame rate : 23.976 fps
Color space : YUV
Chroma subsampling : 4:2:0
Bit depth : 8 bits
Scan type : Progressive
Bits/(Pixel*Frame) : 0.120
Stream size : 5.61 GiB (90%)
Title : Batman.v.Superman.Dawn.of.Justice.2016.Ultimate.Edition.1080p.WEB-DL.DD5.1.H264-RARBG
Language : English
Default : Yes
Forced : No
Color range : Limited
Color primaries : BT.709
Transfer characteristics : BT.709
Matrix coefficients : BT.709

Audio
ID : 2
Format : AC-3
Format/Info : Audio Coding 3
Mode extension : CM (complete main)
Format settings, Endianness : Big
Codec ID : A_AC3
Duration : 3h 2mn
Bit rate mode : Constant
Bit rate : 384 Kbps
Channel(s) : 6 channels
Channel positions : Front: L C R, Side: L R, LFE
Sampling rate : 48.0 KHz
Frame rate : 31.250 fps (1536 spf)
Compression mode : Lossy
Stream size : 501 MiB (8%)
Title : Batman.v.Superman.Dawn.of.Justice.2016.Ultimate.Edition.1080p.WEB-DL.DD5.1.H264-RARBG
Language : English
Default : Yes
Forced : No

Text
ID : 3
Format : UTF-8
Codec ID : S_TEXT/UTF8
Codec ID/Info : UTF-8 Plain Text
Language : English
Default : Yes
Forced : No

Menu
00:00:00.000 : en:1
00:10:08.000 : en:2
00:27:00.000 : en:3
00:37:49.000 : en:4
00:46:54.000 : en:5
01:02:04.000 : en:6
01:14:10.000 : en:7
01:28:07.000 : en:8
01:41:46.000 : en:9
01:53:52.000 : en:10
02:02:58.000 : en:11
02:15:03.000 : en:12
02:27:54.000 : en:13
02:36:51.000 : en:14
02:48:17.000 : en:15
02:54:44.000 : en:16