BBC Proms 2016, Prom 36 – Jamie Cullum Prom


Size : 1.58 GiB (1698005212 Bytes)

BBC Proms 2016, Prom 36 - Jamie Cullum Prom

Live at the BBC Proms: Jamie Cullum presents an evening of late-night jazz, with performances from BBC Introducing artists, the Heritage Orchestra and conductor Jules Buckley.

Live from the Royal Albert Hall
Presented by Clemency Burton-Hill
Jamie Cullum, piano/vocals
The Roundhouse Choir
The Heritage Orchestra
Jules Buckley, conductor

Straddling the boundaries of jazz, pop and rock, Jamie Cullum returns for another Late Night Prom after his sell-out appearance in 2010. This time, backed by the Roundhouse Choir and Heritage Orchestra, he offers his own take on a collection of pop songs, in the spirit of The Song Society - Cullum's project to create fast and loose covers of favourite tracks. He brings the same approach of new discovery both to his use of the wide array of instruments available and to exploring the distinctive space of the Royal Albert Hall.

[url=http://extraimage.net/image/wO6v][img]http://extraimage.net/images/2016/08/27/wO6v.md.jpg[/img][/url]

*****Note***** This torrent contains both audio and video files of the performance

Media info:

(Video file)

General
Format : MPEG-4
Format profile : Base Media
Codec ID : isom (isom/iso2/avc1/mp41)
File size : 1.40 GiB
Duration : 1h 23mn
Overall bit rate mode : Variable
Overall bit rate : 2 390 Kbps

Video
ID : 1
Format : AVC
Format/Info : Advanced Video Codec
Format profile : [email protected]/* */
Format settings, CABAC : Yes
Format settings, ReFrames : 2 frames
Codec ID : avc1
Codec ID/Info : Advanced Video Coding
Duration : 1h 23mn
Bit rate mode : Variable
Bit rate : 2 291 Kbps
Maximum bit rate : 3 500 Kbps
Width : 1 280 pixels
Height : 720 pixels
Display aspect ratio : 16:9
Frame rate mode : Constant
Frame rate : 25.000 fps
Color space : YUV
Chroma subsampling : 4:2:0
Bit depth : 8 bits
Scan type : Progressive
Bits/(Pixel*Frame) : 0.099
Stream size : 1.34 GiB (96%)

Audio
ID : 2
Format : AAC
Format/Info : Advanced Audio Codec
Format profile : LC
Codec ID : 40
Duration : 1h 23mn
Bit rate mode : Constant
Bit rate : 93.5 Kbps
Channel(s) : 2 channels
Channel positions : Front: L R
Sampling rate : 48.0 KHz
Frame rate : 46.875 fps (1024 spf)
Compression mode : Lossy
Stream size : 56.0 MiB (4%)


(audio file)

General
Format : MPEG Audio
File size : 187 MiB
Duration : 1h 21mn
Overall bit rate mode : Constant
Overall bit rate : 320 Kbps
Album : BBC Proms: 2016
Track name : Prom 36: Jamie Cullum Prom
Track name/Position : 0
Genre : Music
Writing library : LAME3.98r

Audio
Format : MPEG Audio
Format version : Version 1
Format profile : Layer 3
Mode : Joint stereo
Duration : 1h 21mn
Bit rate mode : Constant
Bit rate : 320 Kbps
Channel(s) : 2 channels
Sampling rate : 48.0 KHz
Compression mode : Lossy
Stream size : 187 MiB (100%)
Writing library : LAME3.98r
Encoding settings : -m j -V 4 -q 3 -lowpass 20.5