Best of Neha Kakkar, All New Hindi Songs 2016 (Video Jukebox) F


Size : 331.04 MiB (347124092 Bytes)

====================================================================
General
Best of Neha Kakkar, All New Hindi Songs
2016 (Video Jukebox) Full HD 720p.mkv
Format










: Matroska
Format version






: Version 4 / Version 2
File size








: 331 MiB
Duration









: 24 min
Overall bit rate mode


: Variable
Overall bit rate





: 1 900 kb/s
========================================================================
Video
ID












: 1
Format










: AVC
Format/Info







: Advanced Video Codec
Format profile






: [email protected]/* */
Format settings, CABAC


: Yes
Format settings, ReFrames
: 3 frames
Codec ID









: V_MPEG4/ISO/AVC
Duration









: 24 min
Bit rate mode






: Variable
Bit rate









: 1 802 kb/s
Maximum bit rate





: 40.0 Mb/s
Width










: 1 272 pixels
Height










: 600 pixels
Display aspect ratio



: 2.120
Frame rate mode





: Constant
Frame rate








: 25.000 FPS
Color space







: YUV
Chroma subsampling




: 4:2:0
Bit depth








: 8 bits
Scan type








: Progressive
Bits/(Pixel*Frame)




: 0.094
Stream size







: 314 MiB (95%)
Title










: .....::::: TaRa :::::.....
Language









: Hindi
Default









: Yes
Forced










: No
=======================================================================
Audio
ID












: 2
Format










: AAC
Format/Info







: Advanced Audio Codec
Format profile






: LC
Codec ID









: A_AAC
Duration









: 24 min
Bit rate









: 96.0 kb/s
Channel(s)








: 2 channels
Channel positions




: Front: L R
Sampling rate






: 44.1 kHz
Frame rate








: 43.066 FPS (1024 spf)
Compression mode





: Lossy
Delay relative to video

: 10 ms
Stream size







: 16.7 MiB (5%)
Title










: .....::::: TaRa :::::.....
Language









: Hindi
Default









: Yes
Forced










: No
======================================================================= http://imgur.com/HXMsUYO http://imgur.com/W7eD4IG