Beyoncé – Formation (2016 RnB)

Magnet Download Torrent Download

Size : 116.06 MiB (121698977 Bytes)

BEYONCÉ - FORMATION

http://ultraimg.com/images/formation01.png
http://ultraimg.com/images/formation.png


General
Beyoncé - Formation
Format
















: MPEG-4
Format profile












: Base Media
Codec ID















: isom
File size















: 116 MiB
Duration















: 4mn 53s
Overall bit rate











: 3 322 Kbps
MusicVid name













: Formation
Performer















: Beyoncé
Genre

















: RnB
ContentType














: Music Video
Recorded date













: 2016
Writing application










: Lavf56.32.100 / MeRaDil
Cover

















: Yes
Artisturl















: http://www.beyonce.com/
Releasetime














: USA . february 6 . 2016

Video
ID


















: 1
Format
















: AVC
Format/Info














: Advanced Video Codec
Format profile












: [email protected]/* */
Format settings, CABAC








: Yes
Format settings, ReFrames







: 2 frames
Codec ID















: avc1
Codec ID/Info













: Advanced Video Coding
Duration















: 4mn 52s
Bit rate















: 3 051 Kbps
Width

















: 1 920 pixels
Height
















: 1 080 pixels
Display aspect ratio









: 16:9
Frame rate mode












: Variable
Frame rate














: 23.976 fps
Minimum frame rate










: 23.974 fps
Maximum frame rate










: 23.981 fps
Color space














: YUV
Chroma subsampling










: 4:2:0
Bit depth















: 8 bits
Scan type















: Progressive
Bits/(Pixel*Frame)










: 0.061
Stream size














: 107 MiB (92%)

Audio
ID


















: 2
Format
















: AAC
Format/Info














: Advanced Audio Codec
Format profile












: LC
Codec ID















: 40
Duration















: 4mn 53s
Bit rate mode













: Constant
Bit rate















: 256 Kbps
Channel(s)














: 2 channels
Channel positions











: Front: L R
Sampling rate













: 44.1 KHz
Compression mode











: Lossy
Stream size














: 8.94 MiB (8%)