Beyoncé – I am… World Tour – DivX Perfect

Magnet Download Torrent Download

Size : 1.21 GiB (1300618143 Bytes)

Beyoncé I am... World Tour - DivX Perfect

DivX

General
Format












: AVI
Format/Info










: Audio Video Interleave


Video
ID














: 0
Format












: MPEG-4 Visual
Format settings, BVOP





: Yes
Format settings, QPel





: No
Format settings, GMC





: No warppoints
Format settings, Matrix




: Default (H.263)
Muxing mode










: Packed bitstream
Codec ID











: DX50
Codec ID/Hint









: DivX 5
Duration











: 2mn 51s
Bit rate











: 1 420 Kbps
Width













: 720 pixels
Height












: 408 pixels
Display aspect ratio





: 16:9
Frame rate










: 29.970 fps
Color space










: YUV
Chroma subsampling






: 4:2:0
Bit depth











: 8 bits
Scan type











: Progressive
Bits/(Pixel*Frame)






: 0.161
Stream size










: 29.1 MiB (81%)
Writing library








: DivX 3330

Audio
ID














: 1
Format












: AC-3
Format/Info










: Audio Coding 3
Mode extension








: CM (complete main)
Codec ID











: 2000
Duration











: 2mn 51s
Bit rate mode









: Constant
Bit rate











: 320 Kbps
Channel(s)










: 2 channels
Channel positions







: Front: L R
Sampling rate









: 44.1 KHz
Bit depth











: 16 bits
Stream size










: 6.55 MiB (18%)
Alignment











: Split accross interleaves
Interleave, duration





: 33 ms (1.00 video frame)
Interleave, preload duration

: 499 ms