Beyonce – Dance For You [Music Video] 720p [Sbyky]


Size : 72.89 MiB (76432382 Bytes)

[IMG]http://www.shotpix.com/images/58044027281527001918.jpg[/IMG]

General
Complete name













: Beyonce - Dance For You [Music Video] 720p [Sbyky].mp4
Format
















: MPEG-4
Format profile












: Base Media / Version 2
Codec ID















: mp42
File size















: 72.9 MiB
Duration















: 5mn 14s
Overall bit rate mode









: Variable
Overall bit rate











: 1 943 Kbps
Encoded date













: UTC 2013-04-08 06:39:57
Tagged date














: UTC 2013-04-08 06:39:57

Video
ID


















: 1
Format
















: AVC
Format/Info














: Advanced Video Codec
Format profile












: [email protected]/* */
Format settings, CABAC








: Yes
Format settings, ReFrames







: 1 frame
Codec ID















: avc1
Codec ID/Info













: Advanced Video Coding
Duration















: 5mn 14s
Bit rate















: 1 749 Kbps
Maximum bit rate











: 3 492 Kbps
Width

















: 1 280 pixels
Height
















: 720 pixels
Display aspect ratio









: 16:9
Frame rate mode












: Constant
Frame rate














: 23.976 fps
Color space














: YUV
Chroma subsampling










: 4:2:0
Bit depth















: 8 bits
Scan type















: Progressive
Bits/(Pixel*Frame)










: 0.079
Stream size














: 65.6 MiB (90%)
Tagged date














: UTC 2013-04-08 06:40:06

Audio
ID


















: 2
Format
















: AAC
Format/Info














: Advanced Audio Codec
Format profile












: LC
Codec ID















: 40
Duration















: 5mn 14s
Bit rate mode













: Variable
Bit rate















: 192 Kbps
Maximum bit rate











: 202 Kbps
Channel(s)














: 2 channels
Channel positions











: Front: L R
Sampling rate













: 44.1 KHz
Compression mode











: Lossy
Stream size














: 7.20 MiB (10%)
Title

















: IsoMedia File Produced by Google, 5-11-2011
Encoded date













: UTC 2013-04-08 06:40:03
Tagged date














: UTC 2013-04-08 06:40:06

Shared By Sbyky
[IMG]http://www.shotpix.com/images/76014917432015785852.gif[/IMG]
[IMG]http://www.shotpix.com/images/54100788659511547411.gif[/IMG]