Big Sean Ft. Lil Wayne & Jhene Aiko – Beware [Explicit] 1080

Magnet Download Torrent Download

Size : 163.55 MiB (171497610 Bytes)

[IMG]http://yuq.me/users/18/139/v1Ty40ESPf.png[/IMG]
[IMG]http://yuq.me/users/18/139/vp9ZxTPG1u.png[/IMG]

General
Complete name













: Big Sean Ft. Lil Wayne & Jhene Aiko - Beware [Explicit] 1080p [Sbyky].mp4
Format
















: MPEG-4
Format profile












: Base Media / Version 2
Codec ID















: mp42
File size















: 164 MiB
Duration















: 3mn 58s
Overall bit rate mode









: Variable
Overall bit rate











: 5 747 Kbps
Encoded date













: UTC 2013-08-14 23:31:37
Tagged date














: UTC 2013-08-14 23:31:37

Video
ID


















: 1
Format
















: AVC
Format/Info














: Advanced Video Codec
Format profile












: [email protected]/* */
Format settings, CABAC








: Yes
Format settings, ReFrames







: 1 frame
Format settings, GOP









: M=1, N=48
Codec ID















: avc1
Codec ID/Info













: Advanced Video Coding
Duration















: 3mn 58s
Bit rate















: 5 552 Kbps
Maximum bit rate











: 11.5 Mbps
Width

















: 1 920 pixels
Height
















: 1 080 pixels
Display aspect ratio









: 16:9
Frame rate mode












: Constant
Frame rate














: 23.976 fps
Color space














: YUV
Chroma subsampling










: 4:2:0
Bit depth















: 8 bits
Scan type















: Progressive
Bits/(Pixel*Frame)










: 0.112
Stream size














: 158 MiB (97%)
Tagged date














: UTC 2013-08-14 23:31:56

Audio
ID


















: 2
Format
















: AAC
Format/Info














: Advanced Audio Codec
Format profile












: LC
Codec ID















: 40
Duration















: 3mn 58s
Bit rate mode













: Variable
Bit rate















: 192 Kbps
Maximum bit rate











: 205 Kbps
Channel(s)














: 2 channels
Channel positions











: Front: L R
Sampling rate













: 44.1 KHz
Compression mode











: Lossy
Stream size














: 5.46 MiB (3%)
Title

















: IsoMedia File Produced by Google, 5-11-2011
Encoded date













: UTC 2013-08-14 23:31:50
Tagged date














: UTC 2013-08-14 23:31:56

Shared By Sbyky
[IMG]http://yuq.me/users/18/139/0aq32UMZvX.gif[/IMG]
[IMG]http://yuq.me/users/18/139/bQg62viaEG.gif[/IMG]