Bol – 2011- Hindi (Urdu) DvDRiP 720p [ TaRa ].mkv


Size : 1.35 GiB (1451005927 Bytes)

==================================================================
General
Complete name






:Bol - 2011- Hindi (Urdu) DvDRiP 720p [ TaRa ].mkv
Format










: Matroska
Format version






: Version 4 / Version 2
File size








: 1.35 GiB
Duration









: 2h 31mn
Overall bit rate mode


: Variable
Overall bit rate





: 1 276 Kbps
===================================================================
Video
ID












: 1
Format










: AVC
Format/Info







: Advanced Video Codec
Format profile






: [email protected]/* */
Format settings, CABAC


: Yes
Format settings, ReFrames
: 3 frames
Codec ID









: V_MPEG4/ISO/AVC
Duration









: 2h 31mn
Bit rate mode






: Variable
Bit rate









: 1 180 Kbps
Maximum bit rate





: 14.0 Mbps
Width










: 1 280 pixels
Height










: 504 pixels
Display aspect ratio



: 2.540
Frame rate mode





: Constant
Frame rate








: 23.976 (24000/1001) fps
Color space







: YUV
Chroma subsampling




: 4:2:0
Bit depth








: 8 bits
Scan type








: Progressive
Bits/(Pixel*Frame)




: 0.076
Stream size







: 1.25 GiB (92%)
Title










: = __ TaRa ~ DDR __ =
Language









: Urdu
Default









: Yes
Forced










: No
===================================================================
Audio
ID












: 2
Format










: AAC
Format/Info







: Advanced Audio Codec
Format profile






: LC
Codec ID









: A_AAC
Duration









: 2h 31mn
Bit rate









: 94.0 Kbps
Channel(s)








: 2 channels
Channel positions




: Front: L R
Sampling rate






: 44.1 KHz
Frame rate








: 43.066 fps (1024 spf)
Compression mode





: Lossy
Stream size







: 102 MiB (7%)
Title










: = __ TaRa ~ DDR __ =
Language









: Urdu
Default









: Yes
Forced










: No
=================================================================== http://picoolio.net/image/I8HO