Bollywood.Diaries.2016.1080p.WEB-DL.H264.AAC2.0-DDR


Size : 2.54 GiB (2731281711 Bytes)


~ Bollywood.Diaries ~

** 1080p / WEB-DL / H264 / AAC2.0 **

General
Complete name : Bollywood.Diaries.2016.1080p.WEB-DL.H264.AAC2.0-DDR.mp4
Format : MPEG-4
Format profile : Base Media
Codec ID : isom (isom/iso2/avc1/mp41)
File size : 2.53 GiB
Duration : 1h 56mn
Overall bit rate mode : Variable
Overall bit rate : 3 125 Kbps
Writing application : Lavf56.40.101

Video
ID : 1
Format : AVC
Format/Info : Advanced Video Codec
Format profile : [email protected]/* */
Format settings, CABAC : Yes
Format settings, ReFrames : 4 frames
Codec ID : avc1
Codec ID/Info : Advanced Video Coding
Duration : 1h 56mn
Bit rate : 2 959 Kbps
Width : 1 920 pixels
Height : 1 080 pixels
Display aspect ratio : 16:9
Frame rate mode : Constant
Frame rate : 24.000 fps
Color space : YUV
Chroma subsampling : 4:2:0
Bit depth : 8 bits
Scan type : Progressive
Bits/(Pixel*Frame) : 0.059
Stream size : 2.40 GiB (95%)

Audio
ID : 2
Format : AAC
Format/Info : Advanced Audio Codec
Format profile : LC
Codec ID : 40
Duration : 1h 56mn
Bit rate mode : Variable
Bit rate : 160 Kbps
Maximum bit rate : 168 Kbps
Channel(s) : 2 channels
Channel positions : Front: L R
Sampling rate : 44.1 KHz
Frame rate : 43.066 fps (1024 spf)
Compression mode : Lossy
Stream size : 133 MiB (5%)
Default : Yes
https://extraimage.net/image/wvrS https://extraimage.net/image/wvrO https://extraimage.net/image/wvrE https://extraimage.net/image/wvr1 https://extraimage.net/image/wvrc https://extraimage.net/image/wvr7 https://extraimage.net/image/wvrs https://extraimage.net/image/wvrn