Born to Be Wild (2011) 3D BluRay


Size : 2.71 GiB (2907512349 Bytes)


Born to Be Wild (2011) 3D Dual Audio: English + Latin Spanish


Overview

Born to Be Wild observes various orphaned jungle animals and their day-to-day behavioural interactions with the individuals who rescue them and raise them to adulthood. The film unfurls in two separate geographic spheres. Half of it takes place in the rain forests of Borneo, where celebrated primatologist Dr. Birute Galdikas assists baby orangutans; the other half takes place on the arid savannahs of Kenya, where zoologist Dame Daphne Sheldrick works with baby elephant calves.


Media Info:

Format
















: Matroska
Format version












: Version 4 / Version 2
File size















: 2.71 GiB
Duration















: 40mn 49s
Overall bit rate











: 9 493 Kbps
Movie name














: BORN_TO_BE_WILD.Title98.Bluray3DRip
Encoded date













: UTC 2013-08-08 23:43:29
Writing application










: mkvmerge v6.1.0 ('Old Devil') built on Mar
2 2013 22:22:31
Writing library












: libebml v1.3.0 + libmatroska v1.4.0

Video
ID


















: 1
Format
















: AVC
Format/Info














: Advanced Video Codec
Format profile












: [email protected]/* */
Format settings, CABAC








: Yes
Format settings, ReFrames







: 2 frames
Codec ID















: V_MPEG4/ISO/AVC
Duration















: 40mn 49s
Bit rate















: 7 155 Kbps
Width

















: 1 920 pixels
Height
















: 1 080 pixels
Display aspect ratio









: 16:9
Frame rate mode












: Constant
Frame rate














: 23.976 fps
Color space














: YUV
Chroma subsampling










: 4:2:0
Bit depth















: 8 bits
Scan type















: Progressive
Bits/(Pixel*Frame)










: 0.144
Stream size














: 2.04 GiB (75%)
Writing library












: x264 core
Default
















: Yes
Forced
















: No
Color primaries












: BT.709
Transfer characteristics







: BT.709
Matrix coefficients










: BT.709

Audio #1
ID


















: 2
Format
















: AC-3
Format/Info














: Audio Coding 3
Mode extension












: CM (complete main)
Format settings, Endianness






: Big
Codec ID















: A_AC3
Duration















: 40mn 49s
Bit rate mode













: Constant
Bit rate















: 640 Kbps
Channel(s)














: 6 channels
Channel positions











: Front: L C R, Side: L R, LFE
Sampling rate













: 48.0 KHz
Bit depth















: 16 bits
Compression mode











: Lossy
Stream size














: 187 MiB (7%)
Language















: Latin Spanish
Default
















: Yes
Forced
















: No

Audio #2
ID


















: 3
Format
















: DTS
Format/Info














: Digital Theater Systems
Mode

















: 16
Format settings, Endianness






: Big
Codec ID















: A_DTS
Duration















: 40mn 49s
Bit rate mode













: Constant
Bit rate















: 1 509 Kbps
Channel(s)














: 6 channels
Channel positions











: Front: L C R, Side: L R, LFE
Sampling rate













: 48.0 KHz
Bit depth















: 24 bits
Compression mode











: Lossy
Stream size














: 441 MiB (16%)
Language















: English
Default
















: No
Forced
















: No

Menu
00:00:00.000













: en:(01)00:00:00:000
00:10:03.769













: en:(02)00:10:03:769
00:19:19.700













: en:(03)00:19:19:700
00:29:32.896













: en:(04)00:29:32:896
00:39:07.887













: en:(05)00:39:07:887
00:40:49.238













: en:(06)00:40:49:238