Braca Po Materi – serija


Size : 2.04 GiB (2192096104 Bytes)


This story about two maternal half-brothers, a Croat and a Serb. Although they never met, and both lose their loved ones in ethnic clashes, there is a bond between them. Filmed in 1988, "Braca po materi" prophetically forsees the war that would engulf former Yugoslavia three years later.


Braća po materi je jugoslovenski film snimljen 1988. godine u režiji Zdravka Šotre. Rađen je prema istoimenom romanu Jovana Radulovića.


Radnja fima:Isprovociran, Veselin na maturskoj večeri ubija svog vršnjaka. U zatvoru dobija pismo od polubrata, političkog emigranta iz Austrije. Počinje dopisivanje i polubrat mu priča o Dalmatinskoj zagori tridesetih godina kada je rođen iz braka Vranke i Antiše, koji se 1941. godine pridružuje ustašama i gine. Posle rata majka se udaje za prvoborca iz srpskog sela i rađa Veselina, a njega i dalje prati obeležje sina ustaše. Beži preko granice i pridružuje se ustaškom pokretu u Austriji. Kroz te kontakte njihovi odnosi evoluiraju: od nepoverenja i odbojnosti pripadnika dva različita sveta i sistema, do onoga što ih vezuje, a to je da su braća po materi i da se svaki na svoj način ogrešio o zakone društva.

Braća po materi serijaBraca po materi (1988) ep03.avi

General



Complete name : D:Braća po materi serijaBraca po materi (1988) ep03.avi



Format : AVI



Format/Info : Audio Video Interleave



File size : 697 MiB



Duration : 48 min 16 s



Overall bit rate : 2 020 kb/s



Writing application : VirtualDubMod 1.5.10.2 (build 2540/release)



Writing library : VirtualDubMod build 2540/release

Video #0



ID : 0



Format : MPEG-4 Visual



Format profile : Advanced [email protected]/* */



Format settings, BVOP : 2



Format settings, QPel : Yes



Format settings, GMC : No warppoints



Format settings, Matrix : Custom



Muxing mode : Packed bitstream



Codec ID : XVID



Codec ID/Hint : XviD



Duration : 48 min 16 s



Bit rate : 1 818 kb/s



Width : 720 pixels



Height : 464 pixels



Display aspect ratio : 16:10



Frame rate : 25.000 FPS



Color space : YUV



Chroma subsampling : 4:2:0



Bit depth : 8 bits



Scan type : Progressive



Compression mode : Lossy



Bits/(Pixel*Frame) : 0.218



Stream size : 628 MiB (90%)



Writing library : XviD 67

Audio #1



ID : 1



Format : MPEG Audio



Format version : Version 1



Format profile : Layer 3



Mode : Joint stereo



Mode extension : MS Stereo



Codec ID : 55



Codec ID/Hint : MP3



Duration : 48 min 16 s



Bit rate mode : Constant



Bit rate : 192 kb/s



Channel(s) : 2 channels



Sampling rate : 48.0 kHz



Compression mode : Lossy



Stream size : 66.3 MiB (10%)



Alignment : Aligned on interleaves



Interleave, duration : 40
ms (1.00 video frame)



Interleave, preload duration : 504
ms



Writing library : LAME3.99.5ªªª