Britney Spears – Slumber Party ft. Tinashe – Full HD 1080p.mkv


Size : 80.55 MiB (84458464 Bytes)

General
Britney Spears - Slumber Party ft. Tinashe - Full HD 1080p.mkv
Format










: Matroska
Format version






: Version 4 / Version 2
File size








: 80.5 MiB
Duration









: 4 min 4 s
Overall bit rate





: 2 762 kb/s
Movie name








: Britney Spears - Slumber Party ft. Tinashe - Full HD 1080p .....::::: TaRa :::::.....
Encoded date







: UTC 2016-11-28 06:09:16
Writing application



: mkvmerge v8.3.0 ('Over the Horizon') 64bit
Writing library





: libebml v1.3.1 + libmatroska v1.4.2

Video
ID












: 1
Format










: AVC
Format/Info







: Advanced Video Codec
Format profile






: [email protected]/* */
Format settings, CABAC


: Yes
Format settings, ReFrames
: 3 frames
Codec ID









: V_MPEG4/ISO/AVC
Duration









: 4 min 4 s
Bit rate









: 2 635 kb/s
Width










: 1 920 pixels
Height










: 1 080 pixels
Display aspect ratio



: 16:9
Frame rate mode





: Constant
Frame rate








: 23.976 FPS
Color space







: YUV
Chroma subsampling




: 4:2:0
Bit depth








: 8 bits
Scan type








: Progressive
Bits/(Pixel*Frame)




: 0.053
Stream size







: 76.8 MiB (95%)
Title










: .....::::: TaRa :::::.....
Language









: English
Default









: Yes
Forced










: No
Color range







: Limited
Color primaries





: BT.709
Transfer characteristics

: BT.709
Matrix coefficients



: BT.709

Audio
ID












: 2
Format










: AAC
Format/Info







: Advanced Audio Codec
Format profile






: LC
Codec ID









: A_AAC
Duration









: 4 min 4 s
Bit rate









: 126 kb/s
Channel(s)








: 2 channels
Channel positions




: Front: L R
Sampling rate






: 44.1 kHz
Frame rate








: 43.066 FPS (1024 spf)
Compression mode





: Lossy
Stream size







: 3.66 MiB (5%)
Title










: .....::::: TaRa :::::.....
Language









: English
Default









: Yes
Forced










: No
=================================================================================== http://extraimage.net/image/wAs0