Broken Blossoms (1919)

Magnet Download Torrent Download

Size : 895.96 MiB (939477864 Bytes)

Director: D.W. Griffith
(Silent/color tinted with an orchestral score)
Cheng Huan is a missionary whose goal is to bring the teachings of peace by Buddha to the civilized Anglo-Saxons. Upon landing in England, he is quickly disillusioned by the intolerance and apathy of the country. He becomes a storekeeper of a small shop. Out his window, he sees the young Lucy Burrows. She is regularly beaten by her prizefighter father, underfed and wears ragged clothes. Even in this deplorable condition, Cheng can see that she is a priceless beauty and he falls in love with her from afar. On the day that she passes out in front of his store, he takes her in and cares for her. With nothing but love in his heart, he dresses her in silks and provides food for her. Still weak, she stays in his shop that night and all that Cheng does is watch over her. The peace and happiness that he sees last only until Battling Burrows finds out that his daughter is with a foreigner.
Written by Tony Fontana [email protected]/* */}
Fifteen year old Lucy, the illegitimate daughter of boxer and alcoholic Battling Burrows, was raised and still lives in the rough and tumble Limehouse District of East London. She is the lowest of the downtrodden in the neighborhood, often physically and mentally abused, especially by her father. The one person who treats her with respect is Chinese immigrant and shop owner Cheng Huan, who can see the beauty in her humanity. He originally moved to London to spread the word of Buddhism, however had been caught up in the debauchery common to the Limehouse before meeting Lucy, who transforms his life back to what it was. He nurses her after the latest beating by her father. Despite the purity of his love for her, a relationship of any kind between the two cannot be endorsed by society because of differences in age and especially race. When Battling discovers where his daughter is located, he comes to show the two his version of what is right. Written by Huggo
Young Lucy Battling lives under her father's iron rule. Out one day, she falls in love with Cheng Huan, newly arrived in London from China. This does not please her father, who attempts to break the bond by brute force. Written by John J. Magee [email protected]/* */}
File Confirmation:
Format












: MPEG-4 Format profile








: Base Media Codec ID











: isom File size











: 896 MiB Duration











: 1h 29mn Overall bit rate







: 1 403 Kbps Movie name










: Unknow_Title_Title01 Encoded date









: UTC 2009-07-31 00:01:50 Tagged date










: UTC 2009-07-31 00:01:50 Comment












: QuickTime 6.0 or greater
Video ID














: 1 Format












: MPEG-4 Visual Format profile








: [email protected]/* */ Format settings, BVOP





: No Format settings, QPel





: No Format settings, GMC





: No warppoints Format settings, Matrix




: Default (H.263) Codec ID











: 20 Duration











: 1h 29mn Bit rate mode









: Constant Bit rate











: 1 286 Kbps Nominal bit rate







: 768 Kbps Width













: 320 pixels Height












: 240 pixels Display aspect ratio





: 4/3 Frame rate mode








: Constant Frame rate










: 29.970 fps Resolution










: 24 bits Colorimetry










: 4:2:0 Scan type











: Progressive Bits/(Pixel*Frame)






: 0.559 Stream size










: 821 MiB (92%) Writing library








: XviD 1.1.0 (UTC 2005-11-22) Encoded date









: UTC 2009-07-31 00:01:50 Tagged date










: UTC 2009-07-31 00:01:50
Audio ID














: 2 Format












: AAC Format/Info










: Advanced Audio Codec Format version








: Version 4 Format profile








: LC Format settings, SBR





: No Codec ID











: 40 Duration











: 1h 29mn Bit rate mode









: Constant Bit rate











: 112 Kbps Channel(s)










: 2 channels Channel positions







: L R Sampling rate









: 48.0 KHz Resolution










: 16 bits Stream size










: 71.5 MiB (8%) Encoded date









: UTC 2009-07-31 00:01:50 Tagged date










: UTC 2009-07-31 00:01:50
File Scan:
Malwarebytes' Anti-Malware 1.39 Database version: 2528 Windows 5.1.2600 Service Pack 3
7/31/2009 12:44:52 AM mbam-log-2009-07-31 (00-44-52).txt
Scan type: Quick Scan Objects scanned: 1 Time elapsed: 8 second(s)
Memory Processes Infected: 0 Memory Modules Infected: 0 Registry Keys Infected: 0 Registry Values Infected: 0 Registry Data Items Infected: 0 Folders Infected: 0 Files Infected: 0
Memory Processes Infected: (No malicious items detected)
Memory Modules Infected: (No malicious items detected)
Registry Keys Infected: (No malicious items detected)
Registry Values Infected: (No malicious items detected)
Registry Data Items Infected: (No malicious items detected)
Folders Infected: (No malicious items detected)
Files Infected: (No malicious items detected)


When using TPB please read these important notes:



01- Anti-malware apps may warn about keygens, patches, cracks, etc., because of


their capabilities, (generating codes, etc.). Sometimes they're added to


the virus/spyware database and will be detected as malware. If you don't trust

the keygens, patches, cracks, etc., don't use them.


02- Before running .exe-files, keygens, patches, cracks, etc., always check first


if they can be unpacked. Often some third party added a virus to the


original file, repacked it and uploaded it again.
03- Letting anti-malware apps send scan results to their companies can cause

keygens, patches, cracks, etc., to be added to their virus-database.
04- Firewalls which are set to automatically determine connections will allow


apps & MALWARE!. Avoid this by manually configuring your firewall.
05- Usually (new) torrents with many downloads and seeders in a brief period

suspicious! Torrents with the Skull & Crossbones icon are trusted.
06- Some people use multiple accounts and post fake comments


and/or files trying to spread confusion. They seldom seriously

comment or have any torrents, or just a few to look passable.
07- Clicking on unknown links can cause malware to be installed on your machine.

08- In general often there are more fake and negative comments than reliable and

positive comments.
09- In some countries uploading/downloading copyright protected material is


forbidden, but showing some appreciation to reliable up-loaders is not.
10- Posting fake and negative comments or fake/infected uploads on TPB can result

in getting banned from TPB!

For reporting bad or suspicious torrents: http://forum.suprbay.org/forumdisplay.php?fid=29
For more of my torrents: https://thepiratebay.se/user/big_dad_e/

(SSL)
All torrents scanned with: Norton Anti-virus Malwarebytes' Anti-malware
ALWAYS SEED!

Quicktime for iPod