Buscando a Dory 2016 1080p BluRay x264 AC3


Size : 2.19 GiB (2355887250 Bytes)

Un año después de los acontecimientos narrados en "Buscando a Nemo", Dory vive apaciblemente con Marlin y su hijo Nemo. Pero durante un viaje para ver cómo las mantarrayas migran de vuelta a casa, los problemas de memoria de Dory parecen desaparecer durante un segundo: recuerda que tiene una familia e inmediatamente decide emprender viaje para reencontrarse con sus padres, a los que perdió hace años

Video
ID


















: 1
Format
















: AVC
Format/Info














: Advanced Video Codec
Codec ID















: V_MPEG4/ISO/AVC
Duration















: 1 h 37 min
Bit rate















: 2 850 kb/s
Width

















: 1 920 pixels
Height
















: 1 080 pixels
Display aspect ratio









: 16:9
Stream size














: 1.93 GiB (88%)
Writing library












: x264

Audio
ID


















: 2
Format
















: AC-3
Format/Info














: Audio Coding 3
Mode extension












: CM (complete main)
Format settings, Endianness






: Big
Codec ID















: A_AC3
Duration















: 1 h 37 min
Bit rate mode













: Constant
Bit rate















: 384 kb/s
Channel(s)














: 6 channels
Channel positions











: Front: L C R, Side: L R, LFE
Stream size














: 267 MiB (12%)
Title

















: Audio Latino
Language















: Spanish
Default
















: Yes
Forced
















: Yes

Menu
00:00:00.000













: en:Chapter 01
00:02:36.072













: en:Chapter 02
00:06:50.159













: en:Chapter 03
00:10:53.152













: en:Chapter 04
00:13:33.020













: en:Chapter 05
00:15:25.132













: en:Chapter 06
00:17:03.313













: en:Chapter 07
00:19:35.465













: en:Chapter 08
00:21:35.294













: en:Chapter 09
00:24:58.705













: en:Chapter 10
00:27:08.543













: en:Chapter 11
00:30:33.206













: en:Chapter 12
00:35:00.056













: en:Chapter 13
00:37:52.019













: en:Chapter 14
00:40:17.998













: en:Chapter 15
00:41:06.672













: en:Chapter 16
00:42:30.422













: en:Chapter 17
00:46:03.427













: en:Chapter 18
00:48:41.710













: en:Chapter 19
00:50:27.858













: en:Chapter 20
00:55:06.678













: en:Chapter 21
00:57:05.839













: en:Chapter 22
01:00:41.346













: en:Chapter 23
01:04:32.743













: en:Chapter 24
01:10:36.815













: en:Chapter 25
01:12:28.302













: en:Chapter 26
01:14:09.862













: en:Chapter 27
01:18:26.493













: en:Chapter 28
01:26:49.454













: en:Chapter 29