Calvin Harris & Alesso Ft. Hurts – Under Control [Music Vide


Size : 48.97 MiB (51345947 Bytes)

[IMG]http://cdn.piczend.com/images/85PLddpX/1383445156_undercontrol.jpg[/IMG]

General
Complete name













: Calvin Harris & Alesso Ft. Hurts - Under Control [Music Video] 720p [Sbyky].MP4
Format
















: MPEG-4
Format profile












: Base Media
Codec ID















: isom
File size















: 49.0 MiB
Duration















: 3mn 30s
Overall bit rate mode









: Variable
Overall bit rate











: 1 952 Kbps
Encoded date













: UTC 2013-10-21 05:15:21
Tagged date














: UTC 2013-10-21 05:15:21

Video
ID


















: 1
Format
















: AVC
Format/Info














: Advanced Video Codec
Format profile












: [email protected]/* */
Format settings, CABAC








: Yes
Format settings, ReFrames







: 3 frames
Codec ID















: avc1
Codec ID/Info













: Advanced Video Coding
Duration















: 3mn 30s
Bit rate















: 1 696 Kbps
Width

















: 1 280 pixels
Height
















: 720 pixels
Display aspect ratio









: 16:9
Frame rate mode












: Constant
Frame rate














: 23.976 fps
Color space














: YUV
Chroma subsampling










: 4:2:0
Bit depth















: 8 bits
Scan type















: Progressive
Bits/(Pixel*Frame)










: 0.077
Stream size














: 42.5 MiB (87%)
Encoded date













: UTC 2013-10-21 05:15:21
Tagged date














: UTC 2013-10-21 05:15:21

Audio
ID


















: 2
Format
















: AAC
Format/Info














: Advanced Audio Codec
Format profile












: LC
Codec ID















: 40
Duration















: 3mn 30s
Bit rate mode













: Variable
Bit rate















: 254 Kbps
Channel(s)














: 2 channels
Channel positions











: Front: L R
Sampling rate













: 44.1 KHz
Compression mode











: Lossy
Delay relative to video








: -3s 754ms
Stream size














: 6.36 MiB (13%)
Encoded date













: UTC 2013-10-21 05:15:07
Tagged date














: UTC 2013-10-21 05:15:07

Shared By Sbyky
[IMG]http://cdn.piczend.com/images/X3Ag13N3/1379453786_saythanks.gif[/IMG]
[IMG]http://cdn.piczend.com/images/gGqhX2S8/1379453780_keepseeding.gif[/IMG]