Captain America Civil War 2016 IMAX 1080p BluRay HEVC DD5.1 x265


Size : 3.85 GiB (4138068016 Bytes)

Source:Captain America Civil War 2016 IMAX Hybrid 1080p BluRay DTS x264(14.03GB)


Complete name:
Captain.America.Civil.War.2016.IMAX.Hybrid.1080p.BluRay.HEVC.DD5.1.x265.mkv
Format
















: Matroska
File size















: 3.85 GiB
Duration















: 2h 27mn
Overall bit rate











: 3 736 Kbps
Writing application










: mkvmerge v9.5.0 (Quiet Fire) 32bit
Writing library












: libebml v1.3.4 + libmatroska v1.4.5

Video

ID


















: 1
Format
















: V_MPEGH/ISO/HEVC
Duration















: 2h 27mn
Bit rate















: 3 277 Kbps
Width

















: 1 920 pixels
Height
















: 1 040 pixels
Display aspect ratio









: 1.85:1
Frame rate














: 23.976 fps
Bits/(Pixel*Frame)










: 0.068
Stream size














: 3.38 GiB (88%)
Language















: English
Default
















: Yes
Forced
















: No
DURATION















: 02:27:41.937000000

Audio

ID


















: 2
Format
















: E-AC-3
Format/Info














: Audio Coding 3
Format settings, Endianness






: Big
Codec ID















: A_EAC3
Duration















: 2h 27mn
Bit rate mode













: Constant
Bit rate















: 384 Kbps
Channel(s)














: 6 channels
Channel positions











: Front: L C R, Side: L R, LFE
Sampling rate













: 48.0 KHz
Compression mode











: Lossy
Stream size














: 406 MiB (10%)
Title

















: E-AC-3 5.1
Language















: English
Default
















: Yes
Forced
















: No

Text #1

ID


















: 3
Format
















: UTF-8
Title

















: FORCED
Language















: English
Default
















: Yes

Text #2

ID


















: 4
Format
















: UTF-8
Title

















: English
Language















: English

Text #3

ID


















: 5
Format
















: UTF-8
Title

















: SDH
Language















: English