Captain America: The Winter Soldier (2014) Dual Audio 1080p 3D B


Size : 8.93 GiB (9587115966 Bytes)

 ______
_______
______

___
_


___
--------|
|


| |
_
||

_ |
|
| | |

|
||
|----|


|
_

||
|_|
||
| ||
|
|_| |

|
||
|___
| | |
||


||
|_||_ |


_|

|
||

_
|
| |_|
||


||

__
||

|_
___|
||
| | |
|


||
_
||
|
| ||

_
||


||
|_| |
|______| |__| |__||___|
|_||___| |_||_______||_______|

Join ThePirateBay Forum:











https://forum.suprbay.org/member.php?action=register&referrer=908
http://www.imdb.com/title/tt1843866/

Quality : BDRip (by Ash61 )

Container : MKV

Format 3D : Half OverUnder / Vertical anamorfnaâ stereopairs Ordering rakursov : left rakurs first Video codec : x264 Audio codec : AC3



Video: AVC / 23.976 fps / 1920x1080 p / ~ 7.9 Mbps

Audio: # 1 - Russian / AC3 / 48 KHz / 5.1 ch / 640 Kbps ( Dubbed - BD 3D Eur )


# 2 - English / AC3 / 48 KHz / 5.1 ch / 640 Kbps ( Original - 3D BD Eur )

Subtitles: (SRT) Sewn (softsub):

# 1 - Russian Forced (enabled by default)

# 2 - Russian Full

# 3 - Russian Comments creators

# 4 - English Forced

# 5 - English Full

# 6 - English SDH

# 7 - English SDH-Colored

Exterior (UTF-8): # 1 - Russian Forced (enabled by default)


General
Unique ID : 189534100596872906282365866245087326546 (0x8E96F0A2AC707FB5BC07EDFB24247152)
Complete name : E:CaptainAmerica.TheWinterSoldier(2014)3D-halfOU(Ash61)CaptainAmerica.TheWinterSoldier(2014)3D-halfOU(Ash61).mkv
Format : Matroska
Format version : Version 2
File size : 8.93 GiB
Duration : 2h 15mn
Overall bit rate : 9 406 Kbps
Movie name : Первый мститель: Другая война / Captain America: The Winter Soldier (2014) 3D
Encoded date : UTC 2014-08-02 05:02:07
Writing application : mkvmerge v5.8.0 ('No Sleep / Pillow') built on Sep 2 2012 15:37:04
Writing library : libebml v1.2.3 + libmatroska v1.3.0

Video
ID : 1
Format : AVC
Format/Info : Advanced Video Codec
Format profile : [email protected]/* */
Format settings, CABAC : Yes
Format settings, ReFrames : 4 frames
Codec ID : V_MPEG4/ISO/AVC
Duration : 2h 15mn
Bit rate : 7 939 Kbps
Width : 1 920 pixels
Height : 1 080 pixels
Display aspect ratio : 16:9
Frame rate mode : Constant
Frame rate : 23.976 fps
Color space : YUV
Chroma subsampling : 4:2:0
Bit depth : 8 bits
Scan type : Progressive
Bits/(Pixel*Frame) : 0.160
Stream size : 7.54 GiB (84%)
Title : BDRip by Ash61
Writing library : x264 core 138 r2358 9e941d1
Encoding settings : cabac=1 / ref=4 / deblock=1:-3:-3 / analyse=0x3:0x113 / me=umh / subme=10 / psy=1 / psy_rd=1.00:0.15 / mixed_ref=1 / me_range=32 / chroma_me=1 / trellis=2 / 8x8dct=1 / cqm=0 / deadzone=21,11 / fast_pskip=1 / chroma_qp_offset=-3 / threads=12 / lookahead_threads=3 / sliced_threads=0 / nr=0 / decimate=1 / interlaced=0 / bluray_compat=0 / constrained_intra=0 / bframes=10 / b_pyramid=2 / b_adapt=2 / b_bias=0 / direct=3 / weightb=1 / open_gop=0 / weightp=2 / keyint=250 / keyint_min=23 / scenecut=40 / intra_refresh=0 / rc_lookahead=60 / rc=crf / mbtree=1 / crf=17.0 / qcomp=0.70 / qpmin=0 / qpmax=69 / qpstep=4 / vbv_maxrate=40000 / vbv_bufsize=30000 / crf_max=0.0 / nal_hrd=none / frame-packing=4 / ip_ratio=1.40 / aq=1:0.70
Language : English
Default : Yes
Forced : No

Audio #1
ID : 2
Format : AC-3
Format/Info : Audio Coding 3
Mode extension : CM (complete main)
Format settings, Endianness : Big
Codec ID : A_AC3
Duration : 2h 15mn
Bit rate mode : Constant
Bit rate : 640 Kbps
Channel(s) : 6 channels
Channel positions : Front: L C R, Side: L R, LFE
Sampling rate : 48.0 KHz
Bit depth : 16 bits
Compression mode : Lossy
Stream size : 622 MiB (7%)
Title : Дубляж - BD 3D Eur
Language : Russian
Default : Yes
Forced : No

Audio #2
ID : 3
Format : AC-3
Format/Info : Audio Coding 3
Mode extension : CM (complete main)
Format settings, Endianness : Big
Codec ID : A_AC3
Duration : 2h 15mn
Bit rate mode : Constant
Bit rate : 640 Kbps
Channel(s) : 6 channels
Channel positions : Front: L C R, Side: L R, LFE
Sampling rate : 48.0 KHz
Bit depth : 16 bits
Compression mode : Lossy
Stream size : 622 MiB (7%)
Title : Original - BD 3D Eur
Language : English
Default : No
Forced : No

Text #1
ID : 4
Format : UTF-8
Codec ID : S_TEXT/UTF8
Codec ID/Info : UTF-8 Plain Text
Title : Форсированные
Language : Russian
Default : Yes
Forced : No

Text #2
ID : 5
Format : UTF-8
Codec ID : S_TEXT/UTF8
Codec ID/Info : UTF-8 Plain Text
Title : Полные
Language : Russian
Default : No
Forced : No

Text #3
ID : 6
Format : UTF-8
Codec ID : S_TEXT/UTF8
Codec ID/Info : UTF-8 Plain Text
Title : Комментарии авторов
Language : Russian
Default : No
Forced : No

Text #4
ID : 7
Format : UTF-8
Codec ID : S_TEXT/UTF8
Codec ID/Info : UTF-8 Plain Text
Title : Forced
Language : English
Default : No
Forced : No

Text #5
ID : 8
Format : UTF-8
Codec ID : S_TEXT/UTF8
Codec ID/Info : UTF-8 Plain Text
Title : Full
Language : English
Default : No
Forced : No

Text #6
ID : 9
Format : UTF-8
Codec ID : S_TEXT/UTF8
Codec ID/Info : UTF-8 Plain Text
Title : SDH
Language : English
Default : No
Forced : No

Text #7
ID : 10
Format : UTF-8
Codec ID : S_TEXT/UTF8
Codec ID/Info : UTF-8 Plain Text
Title : SDH-Colored
Language : English
Default : No
Forced : No

Menu
00:00:00.000 : :1. Prologue
00:03:28.667 : :2. Hostages on the Lemurian Star
00:13:31.728 : :3. Don't Hold Your Breath
00:17:57.868 : :4. Steve Visits the Smithsonian
00:22:25.302 : :5. Project Insight
00:33:20.415 : :6. In Pursuit
00:41:27.276 : :7. Steve Meets Alexander Pierce
00:51:37.303 : :8. Fugitives from S.H.I.E.L.D.
00:58:23.959 : :9. Uncovering the Past
01:07:40.348 : :10. Call It a Resume
01:16:22.203 : :11. Facing Off with the Winter Soldier
01:24:43.078 : :12. Captain's Orders
01:32:17.699 : :13. Paying a Price
01:37:06.612 : :14. Engaging
01:49:13.088 : :15. The End of the Line
01:55:03.730 : :16. Battle over the Potomac
02:01:11.055 : :17. Life After S.H.I.E.L.D.
02:06:22.241 : :18. End Credits