Carrie Underwood – Heartbeat (2015 Country)


Size : 64.88 MiB (68028152 Bytes)

CARRIE UNDERWOOD - HEARTBEAT

http://ultraimg.com/images/heartbeat.png
http://ultraimg.com/images/heartbeat01.png


General
Carrie Underwood - Heartbeat
Format
















: MPEG-4
Format profile












: Base Media
Codec ID















: isom
File size















: 64.9 MiB
Duration















: 4mn 2s
Overall bit rate











: 2 241 Kbps
MusicVid name













: Heartbeat
Album

















: Storyteller
Performer















: Carrie Underwood
Genre

















: Country
ContentType














: Music Video
Recorded date













: 2015
Writing application










: Lavf56.32.100 / MeRaDil
Cover

















: Yes
Rating
















: ****
Artist url














: http://www.carrieunderwoodofficial.com/
Release time













: USA . december 2 . 2015
http://ultraimg.com/images/heartbeat-carrie.png

Video
ID


















: 1
Format
















: AVC
Format/Info














: Advanced Video Codec
Format profile












: [email protected]/* */
Format settings, CABAC








: Yes
Format settings, ReFrames







: 3 frames
Codec ID















: avc1
Codec ID/Info













: Advanced Video Coding
Duration















: 4mn 2s
Bit rate















: 1 968 Kbps
Width

















: 1 920 pixels
Height
















: 1 080 pixels
Display aspect ratio









: 16:9
Frame rate mode












: Variable
Frame rate














: 23.976 fps
Minimum frame rate










: 23.974 fps
Maximum frame rate










: 23.981 fps
Color space














: YUV
Chroma subsampling










: 4:2:0
Bit depth















: 8 bits
Scan type















: Progressive
Bits/(Pixel*Frame)










: 0.040
Stream size














: 56.9 MiB (88%)

Audio
ID


















: 2
Format
















: AAC
Format/Info














: Advanced Audio Codec
Format profile












: LC
Codec ID















: 40
Duration















: 4mn 2s
Bit rate mode













: Constant
Bit rate















: 256 Kbps
Channel(s)














: 2 channels
Channel positions











: Front: L R
Sampling rate













: 44.1 KHz
Compression mode











: Lossy
Stream size














: 7.41 MiB (11%)