Casino Royale (2006) (Portable).m4v


Size : 1.89 GiB (2032956895 Bytes)

General
Complete name













: Casino Royale (2006) (Portable).m4v
Format
















: MPEG-4
Format profile












: Base Media / Version 2
Codec ID















: mp42
File size















: 1.89 GiB
Duration















: 2h 24mn
Overall bit rate mode









: Variable
Overall bit rate











: 1 875 Kbps
Movie name














: Casino Royale
Performer















: Daniel Craig, Eva Green, Mads Mikkelsen, Jeffrey Wright, Giancarlo Giannini, Caterina Murino, Simon Abkarian, Isaach De Bankole, Jesper Christensen, Ivana Milicevic, Tobias Menzies, Claudio Santamaria, Sebastien Foucan, Malcolm Sinclair, Judi Dench
Genre

















: Adventure, Action, Thriller, Foreign
Recorded date













: 2006-11-17
Encoded date













: UTC 2013-02-14 17:46:46
Tagged date














: UTC 2013-02-17 21:13:46
Writing application










: HandBrake 5251svn 2013021301
Cover

















: Yes
desc

















: James Bond goes on his first ever mission as a 00. Le Chiffre is a banker to the world's terrorists. He is participating in a poker game at Montenegro, where he must win back his money, in order to stay safe among the terrorist market. The boss of MI6, known simply as M sends Bond, along with Vesper Lynd to attend this game and prevent Le Chiffre from winning. Bond, using help from Felix Leiter, Mathis and having Vesper pose as his wife, enters the most important poker game in his already dangerous career. But if Bond defeats Le Chiffre, will he and Vesper Lynd remain safe?

Video
ID


















: 1
Format
















: AVC
Format/Info














: Advanced Video Codec
Format profile












: [email protected]/* */
Format settings, CABAC








: Yes
Format settings, ReFrames







: 4 frames
Codec ID















: avc1
Codec ID/Info













: Advanced Video Coding
Duration















: 2h 24mn
Bit rate mode













: Variable
Bit rate















: 1 702 Kbps
Width

















: 960 pixels
Height
















: 398 pixels
Display aspect ratio









: 2.40:1
Frame rate mode












: Variable
Frame rate














: 23.976 fps
Minimum frame rate










: 23.810 fps
Maximum frame rate










: 29.970 fps
Color space














: YUV
Chroma subsampling










: 4:2:0
Bit depth















: 8 bits
Scan type















: Progressive
Bits/(Pixel*Frame)










: 0.186
Stream size














: 1.72 GiB (91%)
Writing library












: x264 core 129
Encoding settings











: cabac=1 / ref=4 / deblock=1:0:0 / analyse=0x3:0x133 / me=umh / subme=10 / psy=1 / psy_rd=1.00:0.15 / mixed_ref=1 / me_range=32 / chroma_me=1 / trellis=2 / 8x8dct=1 / cqm=0 / deadzone=21,11 / fast_pskip=1 / chroma_qp_offset=-3 / threads=12 / lookahead_threads=2 / sliced_threads=0 / nr=0 / decimate=1 / interlaced=0 / bluray_compat=0 / constrained_intra=0 / bframes=4 / b_pyramid=2 / b_adapt=2 / b_bias=0 / direct=3 / weightb=1 / open_gop=0 / weightp=2 / keyint=300 / keyint_min=30 / scenecut=40 / intra_refresh=0 / rc_lookahead=60 / rc=crf / mbtree=1 / crf=19.0 / qcomp=0.60 / qpmin=4 / qpmax=69 / qpstep=4 / vbv_maxrate=17500 / vbv_bufsize=17500 / crf_max=0.0 / nal_hrd=none / ip_ratio=1.40 / aq=1:1.00
Language















: English
Encoded date













: UTC 2013-02-14 17:46:46
Tagged date














: UTC 2013-02-14 19:40:45
Color primaries












: BT.709
Transfer characteristics







: BT.709
Matrix coefficients










: BT.709

Audio
ID


















: 2
Format
















: AAC
Format/Info














: Advanced Audio Codec
Format profile












: LC
Codec ID















: 40
Duration















: 2h 24mn
Bit rate mode













: Variable
Bit rate















: 165 Kbps
Maximum bit rate











: 263 Kbps
Channel(s)














: 2 channels
Channel positions











: Front: L R
Sampling rate













: 48.0 KHz
Compression mode











: Lossy
Delay relative to video








: 83ms
Stream size














: 170 MiB (9%)
Language















: English
Encoded date













: UTC 2013-02-14 17:46:46
Tagged date














: UTC 2013-02-14 19:40:45