Chino Y Nacho – Sin Ti (h264/mp4)


Size : 113.29 MiB (118796005 Bytes)

General

Format











: MPEG-4
Format profile







: Base Media
Codec ID










: isom
File size










: 113 MiB
Duration










: 4mn 22s
Overall bit rate mode




: Variable
Overall bit rate






: 3 626 Kbps
Encoded date








: UTC 2012-12-26 03:00:39
Tagged date









: UTC 2012-12-26 03:00:39

Video
ID













: 1
Format











: AVC
Format/Info









: Advanced Video Codec
Format profile







: [email protected]/* */
Format settings, CABAC



: Yes
Format settings, ReFrames


: 2 frames
Codec ID










: avc1
Codec ID/Info








: Advanced Video Coding
Duration










: 4mn 22s
Bit rate










: 3 434 Kbps
Maximum bit rate






: 6 785 Kbps
Width












: 720 pixels
Height











: 480 pixels
Display aspect ratio




: 16:9
Original display aspect ratio
: 16:9
Frame rate mode







: Constant
Frame rate









: 23.976 fps
Standard










: NTSC
Color space









: YUV
Chroma subsampling





: 4:2:0
Bit depth










: 8 bits
Scan type










: Progressive
Bits/(Pixel*Frame)





: 0.414
Stream size









: 107 MiB (95%)


Audio
ID













: 2
Format











: AAC
Format/Info









: Advanced Audio Codec
Format profile







: LC
Codec ID










: 40
Duration










: 4mn 21s
Bit rate mode








: Variable
Bit rate










: 192 Kbps
Maximum bit rate






: 228 Kbps
Channel(s)









: 2 channels
Channel positions






: Front: L R
Sampling rate








: 44.1 KHz
Compression mode






: Lossy
Stream size









: 5.89 MiB (5%)