Coldplay – Hymn For The Weekend (2016 Pop)


Size : 110.52 MiB (115891068 Bytes)

COLDPLAY - HYMN FOR THE WEEKEND

http://gifyu.com/images/Coldplay02.png
http://gifyu.com/images/Coldplay01.png


General
Coldplay - Hymn For The Weekend
Format
















: MPEG-4
Format profile












: Base Media
Codec ID















: isom
File size















: 111 MiB
Duration















: 4mn 20s
Overall bit rate











: 3 556 Kbps
MusicVid name













: Hymn for The Weekend
Performer















: Coldplay
Genre

















: Pop
ContentType














: Music Video
Recorded date













: 2016
Writing application










: Lavf56.32.100 / MeRaDil
Cover

















: Yes
Comment
















: Beyoncé
Releasetime














: UK/USA - january 29 - 2016

Video
ID


















: 1
Format
















: AVC
Format/Info














: Advanced Video Codec
Format profile












: [email protected]/* */
Format settings, CABAC








: Yes
Format settings, ReFrames







: 2 frames
Codec ID















: avc1
Codec ID/Info













: Advanced Video Coding
Duration















: 4mn 20s
Bit rate















: 3 270 Kbps
Width

















: 1 920 pixels
Height
















: 1 080 pixels
Display aspect ratio









: 16:9
Frame rate mode












: Variable
Frame rate














: 23.976 fps
Minimum frame rate










: 23.974 fps
Maximum frame rate










: 23.981 fps
Color space














: YUV
Chroma subsampling










: 4:2:0
Bit depth















: 8 bits
Scan type















: Progressive
Bits/(Pixel*Frame)










: 0.066
Stream size














: 102 MiB (92%)

Audio
ID


















: 2
Format
















: AAC
Format/Info














: Advanced Audio Codec
Format profile












: LC
Codec ID















: 40
Duration















: 4mn 20s
Bit rate mode













: Constant
Bit rate















: 256 Kbps
Channel(s)














: 2 channels
Channel positions











: Front: L R
Sampling rate













: 44.1 KHz
Compression mode











: Lossy
Stream size














: 7.96 MiB (7%)

Beyoncé is featuring in the video