Complete Joy – Life


Size : 175.41 MiB (183933090 Bytes)

Complete Joy - Life
Weekly sermons from CrossRoads Church in Decatur, Texas


General
Complete name













: 20160821 - Complete Joy - Life.mp4
Format
















: MPEG-4
Format profile












: Base Media / Version 2
Codec ID















: mp42
File size















: 175 MiB
Duration















: 19mn 2s
Overall bit rate mode









: Variable
Overall bit rate











: 1 288 Kbps
Movie name














: Complete Joy - Life
Album

















: CrossRoads Church
Album/Performer












: Darren Embree
Performer















: Darren Embree
Composer















: http://crossroadspeople.com/
Genre

















: Speech
Recorded date













: 2016
Encoded date













: UTC 2016-08-22 14:24:36
Tagged date














: UTC 2016-08-22 14:24:36
Cover

















: Yes
Comment
















: CrossRoads To Go Video Podcasts

Video
ID


















: 1
Format
















: AVC
Format/Info














: Advanced Video Codec
Format profile












: [email protected]/* */
Format settings, CABAC








: Yes
Format settings, ReFrames







: 4 frames
Codec ID















: avc1
Codec ID/Info













: Advanced Video Coding
Duration















: 19mn 2s
Bit rate















: 1 027 Kbps
Width

















: 720 pixels
Height
















: 540 pixels
Display aspect ratio









: 4:3
Frame rate mode












: Constant
Frame rate














: 29.970 fps
Color space














: YUV
Chroma subsampling










: 4:2:0
Bit depth















: 8 bits
Scan type















: Progressive
Bits/(Pixel*Frame)










: 0.088
Stream size














: 140 MiB (80%)
Writing library












: x264 core 148 r10 3f5ed56
Encoded date













: UTC 2016-08-22 14:24:36
Tagged date














: UTC 2016-08-22 14:24:36
Color primaries












: BT.601 NTSC
Transfer characteristics







: BT.470 System B, BT.470 System G
Matrix coefficients










: BT.601

Audio
ID


















: 2
Format
















: AAC
Format/Info














: Advanced Audio Codec
Format profile












: LC
Codec ID















: 40
Duration















: 19mn 2s
Bit rate mode













: Variable
Bit rate















: 256 Kbps
Channel(s)














: 2 channels
Channel positions











: Front: L R
Sampling rate













: 48.0 KHz
Compression mode











: Lossy
Stream size














: 34.9 MiB (20%)
Encoded date













: UTC 2016-08-22 14:24:36
Tagged date














: UTC 2016-08-22 14:24:36