Complete Joy – Love


Size : 202.47 MiB (212303964 Bytes)

Complete Joy - Love
Weekly sermons from CrossRoads Church in Decatur, Texas


General
Complete name













: 20160814 - Complete Joy - Love.mp4
Format
















: MPEG-4
Format profile












: Base Media / Version 2
Codec ID















: mp42
File size















: 202 MiB
Duration















: 29mn 2s
Overall bit rate mode









: Variable
Overall bit rate











: 975 Kbps
Movie name














: Complete Joy - Love
Album

















: CrossRoads Church
Album/Performer












: Darren Embree
Performer















: Darren Embree
Composer















: http://crossroadspeople.com/
Genre

















: Speech
Recorded date













: 2016
Encoded date













: UTC 2016-08-15 07:34:41
Tagged date














: UTC 2016-08-15 07:34:41
Cover

















: Yes
Comment
















: CrossRoads To Go Video Podcasts

Video
ID


















: 1
Format
















: AVC
Format/Info














: Advanced Video Codec
Format profile












: [email protected]/* */
Format settings, CABAC








: Yes
Format settings, ReFrames







: 4 frames
Codec ID















: avc1
Codec ID/Info













: Advanced Video Coding
Duration















: 29mn 2s
Bit rate















: 714 Kbps
Width

















: 720 pixels
Height
















: 540 pixels
Display aspect ratio









: 4:3
Frame rate mode












: Constant
Frame rate














: 29.970 fps
Color space














: YUV
Chroma subsampling










: 4:2:0
Bit depth















: 8 bits
Scan type















: Progressive
Bits/(Pixel*Frame)










: 0.061
Stream size














: 148 MiB (73%)
Writing library












: x264 core 148 r10 3f5ed56
Encoded date













: UTC 2016-08-15 07:34:41
Tagged date














: UTC 2016-08-15 07:34:41
Color primaries












: BT.601 NTSC
Transfer characteristics







: BT.470 System B, BT.470 System G
Matrix coefficients










: BT.601

Audio
ID


















: 2
Format
















: AAC
Format/Info














: Advanced Audio Codec
Format profile












: LC
Codec ID















: 40
Duration















: 29mn 2s
Bit rate mode













: Variable
Bit rate















: 256 Kbps
Channel(s)














: 2 channels
Channel positions











: Front: L R
Sampling rate













: 48.0 KHz
Compression mode











: Lossy
Stream size














: 53.2 MiB (26%)
Encoded date













: UTC 2016-08-15 07:34:41
Tagged date














: UTC 2016-08-15 07:34:41